<?xml version="1.0" encoding="UTF-8" standalone="no"?>
<!DOCTYPE svg PUBLIC "-//W3C//DTD SVG 1.1//EN" "http://www.w3.org/Graphics/SVG/1.1/DTD/svg11.dtd">
<svg xmlns="http://www.w3.org/2000/svg">
<defs>
  <font id="Material Design Icons" horiz-adv-x="24">
    <font-face font-family="Material Design Icons" units-per-em="512" ascent="448" descent="64"/>
    <missing-glyph horiz-adv-x="0"/>
    <glyph glyph-name="access-point" unicode="" horiz-adv-x="512" d=" M105.1733333333333 342.8266666666667C66.56 304.2133333333334 42.6666666666667 250.88 42.6666666666667 192C42.6666666666667 133.12 66.56 79.7866666666668 105.1733333333333 41.1733333333333L135.2533333333333 71.2533333333333C104.32 101.9733333333334 85.3333333333333 144.64 85.3333333333333 192C85.3333333333333 239.1466666666667 104.32 282.0266666666667 135.2533333333333 312.7466666666667L105.1733333333333 342.8266666666667M406.8266666666667 342.8266666666667L376.7466666666667 312.7466666666667C407.68 282.0266666666667 426.6666666666667 239.1466666666667 426.6666666666667 192C426.6666666666667 144.64 407.68 101.9733333333334 376.7466666666667 71.2533333333333L406.8266666666667 41.1733333333333C445.44 79.7866666666666 469.3333333333333 133.12 469.3333333333333 192C469.3333333333333 250.88 445.44 304.2133333333334 406.8266666666667 342.8266666666667M165.5466666666667 282.4533333333334C142.2933333333333 259.2000000000001 128 227.2 128 192C128 156.8 142.2933333333333 124.8 165.5466666666667 101.5466666666666L195.6266666666667 131.6266666666667C180.2666666666667 146.9866666666667 170.6666666666667 168.3200000000001 170.6666666666667 192S180.2666666666667 237.0133333333333 195.6266666666667 252.3733333333334L165.5466666666667 282.4533333333334M346.4533333333334 282.4533333333334L316.3733333333334 252.3733333333334C331.7333333333334 237.0133333333333 341.3333333333333 215.68 341.3333333333333 192S331.7333333333334 146.9866666666667 316.3733333333334 131.6266666666667L346.4533333333333 101.5466666666667C369.7066666666666 124.8 384 156.8 384 192C384 227.2 369.7066666666666 259.2000000000001 346.4533333333333 282.4533333333334M256 234.6666666666667C232.5333333333334 234.6666666666667 213.3333333333333 215.4666666666667 213.3333333333333 192S232.5333333333334 149.3333333333334 256 149.3333333333334S298.6666666666667 168.5333333333334 298.6666666666667 192S279.4666666666667 234.6666666666667 256 234.6666666666667z"/>
    <glyph glyph-name="access-point-network" unicode="" horiz-adv-x="512" d=" M105.1733333333333 385.4933333333334C66.56 346.88 42.6666666666667 293.5466666666667 42.6666666666667 234.6666666666667C42.6666666666667 175.7866666666667 66.56 122.4533333333334 105.1733333333333 83.84L135.2533333333333 113.92C104.32 144.64 85.3333333333333 187.3066666666667 85.3333333333333 234.6666666666667C85.3333333333333 281.8133333333334 104.32 324.6933333333334 135.2533333333333 355.4133333333334L105.1733333333333 385.4933333333334M406.8266666666667 385.4933333333334L376.7466666666667 355.4133333333334C407.68 324.6933333333334 426.6666666666667 281.8133333333334 426.6666666666667 234.6666666666667C426.6666666666667 187.3066666666667 407.68 144.6400000000001 376.7466666666667 113.92L406.8266666666667 83.84C445.44 122.4533333333334 469.3333333333333 175.7866666666667 469.3333333333333 234.6666666666667C469.3333333333333 293.5466666666667 445.44 346.88 406.8266666666667 385.4933333333334M165.5466666666667 325.12C142.2933333333333 301.8666666666667 128 269.8666666666667 128 234.6666666666667C128 199.4666666666667 142.2933333333333 167.4666666666667 165.5466666666667 144.2133333333334L195.6266666666667 174.2933333333334C180.2666666666667 189.6533333333334 170.6666666666667 210.9866666666667 170.6666666666667 234.6666666666667S180.2666666666667 279.68 195.6266666666667 295.04L165.5466666666667 325.12M346.4533333333334 325.12L316.3733333333334 295.04C331.7333333333334 279.68 341.3333333333333 258.3466666666667 341.3333333333333 234.6666666666667S331.7333333333334 189.6533333333334 316.3733333333334 174.2933333333334L346.4533333333333 144.2133333333334C369.7066666666666 167.4666666666667 384 199.4666666666667 384 234.6666666666667C384 269.8666666666667 369.7066666666666 301.8666666666667 346.4533333333333 325.12M256 277.3333333333334C232.5333333333334 277.3333333333334 213.3333333333333 258.1333333333334 213.3333333333333 234.6666666666667S232.5333333333334 192 256 192S298.6666666666667 211.2 298.6666666666667 234.6666666666667S279.4666666666667 277.3333333333334 256 277.3333333333334M234.6666666666667 149.3333333333334V64H213.3333333333333C201.6 64 192 54.4 192 42.6666666666667H42.6666666666667V0H192C192 -11.7333333333333 201.6 -21.3333333333333 213.3333333333333 -21.3333333333333H298.6666666666667C310.4 -21.3333333333333 320 -11.7333333333333 320 0H469.3333333333333V42.6666666666667H320C320 54.4 310.4 64 298.6666666666667 64H277.3333333333333V149.3333333333334H234.6666666666667z"/>
    <glyph glyph-name="account" unicode="" horiz-adv-x="512" d=" M256 362.6666666666667C303.1466666666667 362.6666666666667 341.3333333333333 324.48 341.3333333333333 277.3333333333334S303.1466666666667 192 256 192S170.6666666666667 230.1866666666667 170.6666666666667 277.3333333333334S208.8533333333333 362.6666666666667 256 362.6666666666667M256 149.3333333333334C350.2933333333334 149.3333333333334 426.6666666666667 111.1466666666667 426.6666666666667 64V21.3333333333334H85.3333333333333V64C85.3333333333333 111.1466666666667 161.7066666666667 149.3333333333334 256 149.3333333333334z"/>
    <glyph glyph-name="account-alert" unicode="" horiz-adv-x="512" d=" M213.3333333333333 362.6666666666667C260.48 362.6666666666667 298.6666666666667 324.48 298.6666666666667 277.3333333333334S260.48 192 213.3333333333333 192S128 230.1866666666667 128 277.3333333333334S166.1866666666667 362.6666666666667 213.3333333333333 362.6666666666667M213.3333333333333 149.3333333333334C307.6266666666667 149.3333333333334 384 111.1466666666667 384 64V21.3333333333334H42.6666666666667V64C42.6666666666667 111.1466666666667 119.04 149.3333333333334 213.3333333333333 149.3333333333334M426.6666666666667 192V298.6666666666667H469.3333333333333V192H426.6666666666667M426.6666666666667 106.6666666666667V149.3333333333334H469.3333333333333V106.6666666666667H426.6666666666667z"/>
    <glyph glyph-name="account-box" unicode="" horiz-adv-x="512" d=" M128 85.3333333333334C128 128 213.3333333333333 151.4666666666667 256 151.4666666666667S384 128 384 85.3333333333334V64H128M320 256C320 220.5866666666667 291.4133333333333 192 256 192S192 220.5866666666667 192 256S220.5866666666667 320 256 320S320 291.4133333333334 320 256M64 341.3333333333334V42.6666666666667C64 19.2 83.2 0 106.6666666666667 0H405.3333333333333C428.8 0 448 19.2 448 42.6666666666667V341.3333333333334C448 364.8 428.8 384 405.3333333333333 384H106.6666666666667C82.9866666666667 384 64 364.8 64 341.3333333333334z"/>
    <glyph glyph-name="account-box-outline" unicode="" horiz-adv-x="512" d=" M405.3333333333333 42.6666666666667H106.6666666666667V341.3333333333334H405.3333333333333M405.3333333333333 384H106.6666666666667C83.2 384 64 364.8 64 341.3333333333334V42.6666666666667C64 19.2 83.2 0 106.6666666666667 0H405.3333333333333C428.8 0 448 19.2 448 42.6666666666667V341.3333333333334C448 365.0133333333333 428.8 384 405.3333333333333 384M352 101.3333333333334C352 133.3333333333334 288 149.3333333333334 256 149.3333333333334S160 133.3333333333334 160 101.3333333333334V85.3333333333334H352M256 186.6666666666667C282.4533333333333 186.6666666666667 304 208.2133333333334 304 234.6666666666667S282.4533333333333 282.6666666666667 256 282.6666666666667S208 261.12 208 234.6666666666667S229.5466666666667 186.6666666666667 256 186.6666666666667z"/>
    <glyph glyph-name="account-check" unicode="" horiz-adv-x="512" d=" M192 341.3333333333334C233.1733333333333 341.3333333333334 266.6666666666667 307.8400000000001 266.6666666666667 266.6666666666667S233.1733333333333 192 192 192S117.3333333333333 225.4933333333334 117.3333333333333 266.6666666666667S150.8266666666667 341.3333333333334 192 341.3333333333334M192 154.6666666666667C274.56 154.6666666666667 341.3333333333333 121.1733333333334 341.3333333333333 80V42.6666666666667H42.6666666666667V80C42.6666666666667 121.1733333333334 109.44 154.6666666666667 192 154.6666666666667M362.6666666666667 177.92L304 241.92L328.7466666666667 266.6666666666667L362.6666666666667 232.7466666666667L439.2533333333334 309.3333333333334L464 279.2533333333334L362.6666666666667 177.92z"/>
    <glyph glyph-name="account-circle" unicode="" horiz-adv-x="512" d=" M256 38.4C202.6666666666667 38.4 155.52 65.7066666666667 128 106.6666666666667C128.64 149.3333333333334 213.3333333333333 172.8 256 172.8S383.36 149.3333333333334 384 106.6666666666667C356.48 65.7066666666667 309.3333333333333 38.4 256 38.4M256 341.3333333333334C291.4133333333333 341.3333333333334 320 312.7466666666667 320 277.3333333333334S291.4133333333333 213.3333333333334 256 213.3333333333334S192 241.92 192 277.3333333333334S220.5866666666667 341.3333333333334 256 341.3333333333334M256 405.3333333333333C138.24 405.3333333333333 42.6666666666667 309.76 42.6666666666667 192S138.24 -21.3333333333333 256 -21.3333333333333S469.3333333333333 74.24 469.3333333333333 192C469.3333333333333 309.9733333333334 373.3333333333333 405.3333333333333 256 405.3333333333333z"/>
    <glyph glyph-name="account-convert" unicode="" horiz-adv-x="512" d=" M160 -10.6666666666666L188.8 17.92L270.08 -63.36L256 -64C121.8133333333333 -64 11.9466666666667 39.2533333333333 1.0666666666667 170.6666666666667H33.0666666666667C40.7466666666667 90.4533333333334 90.6666666666667 22.6133333333333 160 -10.6666666666666M352 394.6666666666667L323.2 366.0800000000001L241.92 447.36L256 448C390.1866666666666 448 500.0533333333333 344.7466666666667 510.9333333333333 213.3333333333334H478.9333333333333C471.2533333333333 293.5466666666667 421.3333333333333 361.1733333333334 352 394.6666666666667M128 85.3333333333334C128 128 213.3333333333333 151.4666666666667 256 151.4666666666667S384 128 384 85.3333333333334V64H128V85.3333333333334M320 256C320 220.5866666666667 291.4133333333333 192 256 192S192 220.5866666666667 192 256S220.5866666666667 320 256 320S320 291.4133333333334 320 256z"/>
    <glyph glyph-name="account-key" unicode="" horiz-adv-x="512" d=" M234.6666666666667 234.6666666666667V192H213.3333333333333V149.3333333333334H170.6666666666667V192H124.3733333333333C115.6266666666667 167.04 91.9466666666667 149.3333333333334 64 149.3333333333334C28.5866666666667 149.3333333333334 0 177.92 0 213.3333333333334S28.5866666666667 277.3333333333334 64 277.3333333333334C91.9466666666667 277.3333333333334 115.6266666666667 259.6266666666667 124.3733333333333 234.6666666666667H234.6666666666667M64 234.6666666666667C52.2666666666667 234.6666666666667 42.6666666666667 225.0666666666667 42.6666666666667 213.3333333333334S52.2666666666667 192 64 192S85.3333333333333 201.6 85.3333333333333 213.3333333333334S75.7333333333333 234.6666666666667 64 234.6666666666667M341.3333333333333 149.3333333333334C398.2933333333334 149.3333333333334 512 120.7466666666667 512 64V21.3333333333334H170.6666666666667V64C170.6666666666667 120.7466666666667 284.3733333333334 149.3333333333334 341.3333333333333 149.3333333333334M341.3333333333333 192C294.1866666666666 192 256 230.1866666666667 256 277.3333333333334S294.1866666666666 362.6666666666667 341.3333333333333 362.6666666666667S426.6666666666667 324.48 426.6666666666667 277.3333333333334S388.48 192 341.3333333333333 192z"/>
    <glyph glyph-name="account-location" unicode="" horiz-adv-x="512" d=" M384 106.6666666666667H128V125.8666666666667C128 168.5333333333334 213.3333333333333 192 256 192S384 168.5333333333334 384 125.8666666666667M256 334.9333333333334C288 334.9333333333334 313.6 309.3333333333334 313.6 277.3333333333334C313.6 245.3333333333334 288 219.7333333333334 256 219.7333333333334C224 219.7333333333334 198.4 245.3333333333334 198.4 277.3333333333334C198.4 309.3333333333334 224 334.9333333333334 256 334.9333333333334M405.3333333333333 405.3333333333333H106.6666666666667C82.9866666666667 405.3333333333333 64 386.3466666666667 64 362.6666666666667V64C64 40.5333333333333 83.2 21.3333333333334 106.6666666666667 21.3333333333334H192L256 -42.6666666666666L320 21.3333333333334H405.3333333333333C428.8 21.3333333333334 448 40.5333333333333 448 64V362.6666666666667C448 386.3466666666667 428.8 405.3333333333333 405.3333333333333 405.3333333333333z"/>
    <glyph glyph-name="account-minus" unicode="" horiz-adv-x="512" d=" M320 149.3333333333334C263.04 149.3333333333334 149.3333333333333 120.96 149.3333333333333 64V21.3333333333334H490.6666666666666V64C490.6666666666666 120.96 376.9600000000001 149.3333333333334 320 149.3333333333334M21.3333333333333 234.6666666666667V192H192V234.6666666666667M320 192C367.1466666666667 192 405.3333333333333 230.1866666666667 405.3333333333333 277.3333333333334S367.1466666666667 362.6666666666667 320 362.6666666666667S234.6666666666667 324.48 234.6666666666667 277.3333333333334S272.8533333333333 192 320 192z"/>
    <glyph glyph-name="account-multiple" unicode="" horiz-adv-x="512" d=" M341.3333333333333 170.6666666666667C335.1466666666667 170.6666666666667 328.1066666666667 170.6666666666667 320.64 169.6C345.3866666666667 151.68 362.6666666666667 128 362.6666666666667 96V42.6666666666667H490.6666666666666V96C490.6666666666666 145.7066666666667 391.04 170.6666666666667 341.3333333333333 170.6666666666667M170.6666666666667 170.6666666666667C120.96 170.6666666666667 21.3333333333333 145.7066666666667 21.3333333333333 96V42.6666666666667H320V96C320 145.7066666666667 220.3733333333333 170.6666666666667 170.6666666666667 170.6666666666667M170.6666666666667 213.3333333333334C206.08 213.3333333333334 234.6666666666667 241.92 234.6666666666667 277.3333333333334S206.08 341.3333333333334 170.6666666666667 341.3333333333334S106.6666666666667 312.7466666666667 106.6666666666667 277.3333333333334S135.2533333333333 213.3333333333334 170.6666666666667 213.3333333333334M341.3333333333333 213.3333333333334C376.7466666666667 213.3333333333334 405.3333333333333 241.92 405.3333333333333 277.3333333333334S376.7466666666667 341.3333333333334 341.3333333333333 341.3333333333334S277.3333333333333 312.7466666666667 277.3333333333333 277.3333333333334S305.92 213.3333333333334 341.3333333333333 213.3333333333334z"/>
    <glyph glyph-name="account-multiple-outline" unicode="" horiz-adv-x="512" d=" M352 309.3333333333334C375.4666666666667 309.3333333333334 394.6666666666667 290.1333333333334 394.6666666666667 266.6666666666667S375.4666666666667 224 352 224S309.3333333333333 243.2 309.3333333333333 266.6666666666667S328.5333333333333 309.3333333333334 352 309.3333333333334M352 192C393.1733333333333 192 426.6666666666667 225.4933333333334 426.6666666666667 266.6666666666667S393.1733333333333 341.3333333333334 352 341.3333333333334S277.3333333333333 307.8400000000001 277.3333333333333 266.6666666666667S310.8266666666667 192 352 192M160 309.3333333333334C183.4666666666667 309.3333333333334 202.6666666666667 290.1333333333334 202.6666666666667 266.6666666666667S183.4666666666667 224 160 224S117.3333333333333 243.2 117.3333333333333 266.6666666666667S136.5333333333333 309.3333333333334 160 309.3333333333334M160 192C201.1733333333333 192 234.6666666666667 225.4933333333334 234.6666666666667 266.6666666666667S201.1733333333333 341.3333333333334 160 341.3333333333334S85.3333333333333 307.8400000000001 85.3333333333333 266.6666666666667S118.8266666666667 192 160 192M458.6666666666666 74.6666666666667H298.6666666666667V101.3333333333334C298.6666666666667 111.1466666666667 294.4 119.68 288 127.36C306.3466666666667 133.7600000000001 329.3866666666667 138.6666666666667 352 138.6666666666667C404.0533333333334 138.6666666666667 458.6666666666666 112.8533333333334 458.6666666666666 101.3333333333334M266.6666666666667 74.6666666666667H53.3333333333333V101.3333333333334C53.3333333333333 112.8533333333334 107.9466666666667 138.6666666666667 160 138.6666666666667S266.6666666666667 112.8533333333334 266.6666666666667 101.3333333333334M352 170.6666666666667C326.4 170.6666666666667 286.5066666666667 163.4133333333334 256 149.3333333333334C225.4933333333334 163.6266666666667 185.6 170.6666666666667 160 170.6666666666667C113.7066666666667 170.6666666666667 21.3333333333333 147.6266666666667 21.3333333333333 101.3333333333334V42.6666666666667H490.6666666666666V101.3333333333334C490.6666666666666 147.6266666666667 398.2933333333334 170.6666666666667 352 170.6666666666667z"/>
    <glyph glyph-name="account-multiple-plus" unicode="" horiz-adv-x="512" d=" M277.3333333333333 170.6666666666667C234.6666666666667 170.6666666666667 149.3333333333333 149.3333333333334 149.3333333333333 106.6666666666667V64H405.3333333333333V106.6666666666667C405.3333333333333 149.3333333333334 320 170.6666666666667 277.3333333333333 170.6666666666667M418.56 167.2533333333333C436.2666666666667 151.8933333333333 448 131.84 448 106.6666666666667V64H512V106.6666666666667C512 139.52 461.4399999999999 160 418.56 167.2533333333333M277.3333333333333 213.3333333333334C312.7466666666667 213.3333333333334 341.3333333333333 241.92 341.3333333333333 277.3333333333334S312.7466666666667 341.3333333333334 277.3333333333333 341.3333333333334S213.3333333333333 312.7466666666667 213.3333333333333 277.3333333333334S241.92 213.3333333333334 277.3333333333333 213.3333333333334M384 213.3333333333334C419.4133333333333 213.3333333333334 448 241.92 448 277.3333333333334S419.4133333333333 341.3333333333334 384 341.3333333333334C377.1733333333333 341.3333333333334 370.56 340.2666666666667 364.3733333333333 338.3466666666667C376.5333333333333 321.0666666666667 384 299.9466666666667 384 277.3333333333334C384 254.72 376.5333333333333 233.8133333333334 364.3733333333333 216.5333333333334C370.56 214.4 377.1733333333333 213.3333333333334 384 213.3333333333334M170.6666666666667 234.6666666666667H106.6666666666667V298.6666666666667H64V234.6666666666667H0V192H64V128H106.6666666666667V192H170.6666666666667V234.6666666666667z"/>
    <glyph glyph-name="account-network" unicode="" horiz-adv-x="512" d=" M277.3333333333333 106.6666666666667V64H298.6666666666667C310.4 64 320 54.4 320 42.6666666666667H469.3333333333333V0H320C320 -11.7333333333333 310.4 -21.3333333333333 298.6666666666667 -21.3333333333333H213.3333333333333C201.6 -21.3333333333333 192 -11.7333333333333 192 0H42.6666666666667V42.6666666666667H192C192 54.4 201.6 64 213.3333333333333 64H234.6666666666667V106.6666666666667H106.6666666666667V138.6666666666667C106.6666666666667 179.84 173.44 213.3333333333334 256 213.3333333333334S405.3333333333333 179.84 405.3333333333333 138.6666666666667V106.6666666666667H277.3333333333333M256 405.3333333333333C297.1733333333333 405.3333333333333 330.6666666666667 371.8400000000001 330.6666666666667 330.6666666666667S297.1733333333333 256 256 256S181.3333333333333 289.4933333333334 181.3333333333333 330.6666666666667S214.8266666666667 405.3333333333333 256 405.3333333333333z"/>
    <glyph glyph-name="account-off" unicode="" horiz-adv-x="512" d=" M256 362.6666666666667C303.1466666666667 362.6666666666667 341.3333333333333 324.48 341.3333333333333 277.3333333333334C341.3333333333333 235.7333333333334 311.4666666666667 200.96 272 193.4933333333334L172.16 293.3333333333334C179.6266666666667 332.8 214.4 362.6666666666667 256 362.6666666666667M261.9733333333333 149.3333333333334L389.9733333333334 21.3333333333334L426.6666666666667 -15.36L399.5733333333333 -42.6666666666666L335.5733333333333 21.3333333333334H85.3333333333333V64C85.3333333333333 103.2533333333333 138.6666666666667 136.3200000000001 210.56 146.3466666666667L59.3066666666667 297.6L86.4 324.6933333333334L261.9733333333333 149.3333333333334M426.6666666666667 64V38.8266666666667L322.9866666666667 142.5066666666667C384 129.4933333333334 426.6666666666667 99.2 426.6666666666667 64z"/>
    <glyph glyph-name="account-outline" unicode="" horiz-adv-x="512" d=" M256 170.6666666666667C199.04 170.6666666666667 85.3333333333333 142.2933333333334 85.3333333333333 85.3333333333334V21.3333333333334H426.6666666666667V85.3333333333334C426.6666666666667 142.2933333333334 312.96 170.6666666666667 256 170.6666666666667M256 362.6666666666667C208.8533333333333 362.6666666666667 170.6666666666667 324.48 170.6666666666667 277.3333333333334S208.8533333333333 192 256 192S341.3333333333333 230.1866666666667 341.3333333333333 277.3333333333334S303.1466666666667 362.6666666666667 256 362.6666666666667M256 130.1333333333333C319.36 130.1333333333333 386.1333333333334 98.9866666666667 386.1333333333334 85.3333333333334V61.8666666666667H125.8666666666667V85.3333333333334C125.8666666666667 98.9866666666667 192 130.1333333333333 256 130.1333333333333M256 322.1333333333334C280.7466666666667 322.1333333333334 300.8 302.0800000000001 300.8 277.3333333333334C300.8 252.5866666666667 280.7466666666667 232.5333333333334 256 232.5333333333334C231.2533333333334 232.5333333333334 211.2 252.5866666666667 211.2 277.3333333333334C211.2 302.0800000000001 231.2533333333334 322.1333333333334 256 322.1333333333334z"/>
    <glyph glyph-name="account-plus" unicode="" horiz-adv-x="512" d=" M320 149.3333333333334C263.04 149.3333333333334 149.3333333333333 120.96 149.3333333333333 64V21.3333333333334H490.6666666666666V64C490.6666666666666 120.96 376.9600000000001 149.3333333333334 320 149.3333333333334M128 234.6666666666667V298.6666666666667H85.3333333333333V234.6666666666667H21.3333333333333V192H85.3333333333333V128H128V192H192V234.6666666666667M320 192C367.1466666666667 192 405.3333333333333 230.1866666666667 405.3333333333333 277.3333333333334S367.1466666666667 362.6666666666667 320 362.6666666666667S234.6666666666667 324.48 234.6666666666667 277.3333333333334S272.8533333333333 192 320 192z"/>
    <glyph glyph-name="account-remove" unicode="" horiz-adv-x="512" d=" M320 149.3333333333334C376.9600000000001 149.3333333333334 490.6666666666666 120.96 490.6666666666666 64V21.3333333333334H149.3333333333333V64C149.3333333333333 120.96 263.04 149.3333333333334 320 149.3333333333334M320 192C272.8533333333333 192 234.6666666666667 230.1866666666667 234.6666666666667 277.3333333333334S272.8533333333333 362.6666666666667 320 362.6666666666667S405.3333333333333 324.48 405.3333333333333 277.3333333333334S367.1466666666667 192 320 192M106.6666666666667 243.4133333333334L151.8933333333333 288.8533333333334L182.1866666666667 258.5600000000001L136.7466666666667 213.3333333333334L182.1866666666667 168.1066666666667L151.8933333333333 137.8133333333333L106.6666666666667 183.2533333333333L61.44 137.8133333333334L31.1466666666667 168.1066666666667L76.5866666666667 213.3333333333334L31.1466666666667 258.56L61.44 288.8533333333334L106.6666666666667 243.4133333333334z"/>
    <glyph glyph-name="account-search" unicode="" horiz-adv-x="512" d=" M320 149.3333333333334C376.9600000000001 149.3333333333334 490.6666666666666 120.7466666666667 490.6666666666666 64V21.3333333333334H149.3333333333333V64C149.3333333333333 120.7466666666667 263.04 149.3333333333334 320 149.3333333333334M320 192C272.8533333333333 192 234.6666666666667 230.1866666666667 234.6666666666667 277.3333333333334S272.8533333333333 362.6666666666667 320 362.6666666666667S405.3333333333333 324.48 405.3333333333333 277.3333333333334S367.1466666666667 192 320 192M58.88 135.2533333333333C50.56 126.9333333333333 36.9066666666667 126.9333333333333 28.5866666666667 135.2533333333333C20.2666666666667 143.5733333333334 20.2666666666667 157.2266666666667 28.5866666666667 165.5466666666667L70.1866666666667 207.1466666666667C66.1333333333333 215.4666666666667 64 224.8533333333333 64 234.6666666666667C64 270.0800000000001 92.5866666666667 298.6666666666667 128 298.6666666666667S192 270.0800000000001 192 234.6666666666667S163.4133333333333 170.6666666666667 128 170.6666666666667C118.1866666666667 170.6666666666667 108.8 172.8 100.48 176.8533333333334L58.88 135.2533333333333M128 256C116.2666666666667 256 106.6666666666667 246.4000000000001 106.6666666666667 234.6666666666667S116.2666666666667 213.3333333333334 128 213.3333333333334S149.3333333333333 222.9333333333333 149.3333333333333 234.6666666666667S139.7333333333333 256 128 256z"/>
    <glyph glyph-name="account-star" unicode="" horiz-adv-x="512" d=" M320 149.3333333333334C263.04 149.3333333333334 149.3333333333333 120.96 149.3333333333333 64V21.3333333333334H490.6666666666666V64C490.6666666666666 120.96 376.9600000000001 149.3333333333334 320 149.3333333333334M320 192C367.1466666666667 192 405.3333333333333 230.1866666666667 405.3333333333333 277.3333333333334S367.1466666666667 362.6666666666667 320 362.6666666666667S234.6666666666667 324.48 234.6666666666667 277.3333333333334S272.8533333333333 192 320 192M106.6666666666667 164.6933333333334L158.9333333333333 132.9066666666667L145.0666666666667 192.8533333333334L192 232.96L130.3466666666666 238.2933333333334L106.6666666666667 294.6133333333334L82.56 238.2933333333334L21.3333333333333 232.96L67.84 192.8533333333333L53.3333333333333 132.9066666666667L106.6666666666667 164.6933333333334z"/>
    <glyph glyph-name="account-star-variant" unicode="" horiz-adv-x="512" d=" M192 149.3333333333334C248.96 149.3333333333334 362.6666666666667 120.96 362.6666666666667 64V21.3333333333334H21.3333333333333V64C21.3333333333333 120.96 135.04 149.3333333333334 192 149.3333333333334M192 192C144.8533333333333 192 106.6666666666667 230.1866666666667 106.6666666666667 277.3333333333334S144.8533333333333 362.6666666666667 192 362.6666666666667S277.3333333333333 324.48 277.3333333333333 277.3333333333334S239.1466666666667 192 192 192M405.3333333333333 164.6933333333334L352.8533333333333 132.9066666666667L366.9333333333333 192.8533333333334L320 232.9600000000001L381.6533333333333 238.2933333333334L405.3333333333333 294.6133333333334L429.44 238.2933333333334L490.6666666666666 232.96L444.16 192.8533333333333L458.6666666666666 132.9066666666667L405.3333333333333 164.6933333333333z"/>
    <glyph glyph-name="account-switch" unicode="" horiz-adv-x="512" d=" M341.3333333333333 256C391.04 256 490.6666666666666 231.04 490.6666666666666 181.3333333333334V128H362.6666666666667V181.3333333333334C362.6666666666667 213.3333333333334 345.3866666666667 237.0133333333333 320.8533333333333 254.9333333333334L341.3333333333333 256M170.6666666666667 256C220.3733333333333 256 320 231.04 320 181.3333333333334V128H21.3333333333333V181.3333333333334C21.3333333333333 231.04 120.96 256 170.6666666666667 256M170.6666666666667 298.6666666666667C135.2533333333333 298.6666666666667 106.6666666666667 327.2533333333334 106.6666666666667 362.6666666666667S135.2533333333333 426.6666666666667 170.6666666666667 426.6666666666667S234.6666666666667 398.08 234.6666666666667 362.6666666666667S206.08 298.6666666666667 170.6666666666667 298.6666666666667M341.3333333333333 298.6666666666667C305.92 298.6666666666667 277.3333333333333 327.2533333333334 277.3333333333333 362.6666666666667S305.92 426.6666666666667 341.3333333333333 426.6666666666667S405.3333333333333 398.08 405.3333333333333 362.6666666666667S376.7466666666667 298.6666666666667 341.3333333333333 298.6666666666667M192 90.6666666666667V42.6666666666667H320V90.6666666666667L389.3333333333333 21.3333333333334L320 -48V0H192V-48L122.6666666666667 21.3333333333334L192 90.6666666666667z"/>
    <glyph glyph-name="adjust" unicode="" horiz-adv-x="512" d=" M256 405.3333333333333C138.24 405.3333333333333 42.6666666666667 309.76 42.6666666666667 192S138.24 -21.3333333333333 256 -21.3333333333333S469.3333333333333 74.24 469.3333333333333 192S373.76 405.3333333333333 256 405.3333333333333M256 21.3333333333334C161.92 21.3333333333334 85.3333333333333 97.92 85.3333333333333 192S161.92 362.6666666666667 256 362.6666666666667S426.6666666666667 286.0800000000001 426.6666666666667 192S350.08 21.3333333333334 256 21.3333333333334M320 192C320 156.5866666666667 291.4133333333333 128 256 128S192 156.5866666666667 192 192S220.5866666666667 256 256 256S320 227.4133333333334 320 192z"/>
    <glyph glyph-name="air-conditioner" unicode="" horiz-adv-x="512" d=" M140.5866666666667 433.92C190.5066666666667 472.5333333333333 244.6933333333333 425.3866666666667 256.8533333333333 352C266.0266666666667 352 274.9866666666666 349.44 283.0933333333333 344.7466666666667C294.1866666666666 357.5466666666667 304 375.04 300.16 394.6666666666667C291.2 440.5333333333333 342.6133333333333 477.6533333333333 391.4666666666667 414.2933333333334C430.08 364.3733333333334 382.9333333333334 310.1866666666667 309.3333333333334 298.0266666666667C309.3333333333334 288.8533333333334 306.9866666666667 279.68 302.0800000000001 271.5733333333334C314.88 260.6933333333334 332.3733333333334 250.88 352 254.7200000000001C397.44 263.6800000000001 434.7733333333333 212.48 371.4133333333333 163.4133333333334C321.4933333333334 124.8 267.3066666666667 171.9466666666667 255.1466666666667 245.3333333333334C245.9733333333334 245.3333333333334 237.0133333333334 248.1066666666667 229.12 252.8C218.0266666666667 240 208 222.2933333333334 211.84 202.6666666666667C220.8 157.0133333333333 169.3866666666667 119.68 120.5333333333333 183.04C81.7066666666667 233.1733333333334 129.0666666666667 287.36 202.6666666666667 299.3066666666667C202.6666666666667 308.48 205.44 317.44 210.1333333333333 325.5466666666667C197.3333333333333 336.4266666666667 179.84 346.4533333333334 160 342.6133333333334C114.56 333.6533333333333 77.2266666666667 384.8533333333334 140.5866666666667 433.92M106.6666666666667 106.6666666666667H149.3333333333333C172.8 106.6666666666667 192 87.4666666666667 192 64V-64H149.3333333333333V-21.3333333333333H106.6666666666667V-64H64V64C64 87.4666666666667 83.2 106.6666666666667 106.6666666666667 106.6666666666667M106.6666666666667 64V21.3333333333334H149.3333333333333V64H106.6666666666667M275.84 106.6666666666667H320L257.4933333333334 -64H213.3333333333333L275.84 106.6666666666667M384 106.6666666666667H448V64H384V-21.3333333333333H448V-64H384C360.5333333333333 -64 341.3333333333333 -44.8 341.3333333333333 -21.3333333333333V64C341.3333333333333 87.4666666666667 360.5333333333333 106.6666666666667 384 106.6666666666667z"/>
    <glyph glyph-name="airballoon" unicode="" horiz-adv-x="512" d=" M234.6666666666667 -42.6666666666666C211.2 -42.6666666666666 192 -23.4666666666667 192 0V42.6666666666667H320V0C320 -23.4666666666667 300.8 -42.6666666666666 277.3333333333333 -42.6666666666666H234.6666666666667M256 426.6666666666667C271.1466666666667 426.6666666666667 285.6533333333333 424.7466666666667 299.7333333333334 421.12C324.6933333333334 387.6266666666667 341.3333333333333 326.1866666666667 341.3333333333333 256C341.3333333333333 207.36 333.2266666666667 162.7733333333333 320 106.6666666666667C320 83.2 300.8 64 277.3333333333333 64H234.6666666666667C211.2 64 192 83.2 192 106.6666666666667C178.7733333333334 162.7733333333333 170.6666666666667 207.36 170.6666666666667 256C170.6666666666667 326.1866666666667 187.3066666666667 387.6266666666667 212.2666666666667 421.12C226.3466666666667 424.7466666666667 240.8533333333333 426.6666666666667 256 426.6666666666667M426.6666666666667 277.3333333333334C426.6666666666667 209.4933333333334 387.2 108.3733333333333 329.8133333333334 80.8533333333334C350.08 119.68 362.6666666666667 195.6266666666667 362.6666666666667 256C362.6666666666667 316.3733333333334 350.08 370.9866666666667 329.8133333333334 409.8133333333334C387.2 382.2933333333334 426.6666666666667 345.1733333333334 426.6666666666667 277.3333333333334M85.3333333333333 277.3333333333334C85.3333333333333 345.1733333333334 124.8 382.2933333333334 182.1866666666667 409.8133333333334C161.92 370.9866666666667 149.3333333333333 316.3733333333334 149.3333333333333 256S161.92 119.68 182.1866666666667 80.8533333333334C124.8 108.3733333333333 85.3333333333333 209.4933333333334 85.3333333333333 277.3333333333334z"/>
    <glyph glyph-name="airplane" unicode="" horiz-adv-x="512" d=" M448 106.6666666666667V149.3333333333334L277.3333333333333 256V373.3333333333334C277.3333333333333 391.04 263.04 405.3333333333333 245.3333333333333 405.3333333333333S213.3333333333333 391.04 213.3333333333333 373.3333333333334V256L42.6666666666667 149.3333333333334V106.6666666666667L213.3333333333333 160V42.6666666666667L170.6666666666667 10.6666666666667V-21.3333333333333L245.3333333333333 0L320 -21.3333333333333V10.6666666666667L277.3333333333333 42.6666666666667V160L448 106.6666666666667z"/>
    <glyph glyph-name="airplane-off" unicode="" horiz-adv-x="512" d=" M67.2 335.5733333333334L173.44 229.12L45.8666666666667 149.3333333333334V106.6666666666667L216.5333333333333 160V42.6666666666667L173.8666666666667 10.6666666666667V-21.3333333333333L248.5333333333334 0L323.2 -21.3333333333333V10.6666666666667L280.5333333333333 42.6666666666667V122.24L402.56 0L429.8666666666667 27.0933333333334L94.2933333333333 362.6666666666667M280.5333333333333 256V373.3333333333334C280.5333333333333 391.04 266.24 405.3333333333333 248.5333333333334 405.3333333333333S216.5333333333333 391.04 216.5333333333333 373.3333333333334V294.8266666666667L383.36 128L451.1999999999999 106.6666666666667V149.3333333333334L280.5333333333333 256z"/>
    <glyph glyph-name="airplay" unicode="" horiz-adv-x="512" d=" M128 -21.3333333333333H384L256 106.6666666666667M448 384H64C40.5333333333333 384 21.3333333333333 364.8 21.3333333333333 341.3333333333334V85.3333333333334C21.3333333333333 61.8666666666667 40.5333333333333 42.6666666666667 64 42.6666666666667H149.3333333333333V85.3333333333334H64V341.3333333333334H448V85.3333333333334H362.6666666666667V42.6666666666667H448C471.4666666666667 42.6666666666667 490.6666666666666 61.8666666666667 490.6666666666666 85.3333333333334V341.3333333333334C490.6666666666666 364.8 471.4666666666667 384 448 384z"/>
    <glyph glyph-name="alarm" unicode="" horiz-adv-x="512" d=" M256 21.3333333333334C173.44 21.3333333333334 106.6666666666667 88.1066666666667 106.6666666666667 170.6666666666667S173.44 320 256 320S405.3333333333333 253.2266666666667 405.3333333333333 170.6666666666667S338.56 21.3333333333334 256 21.3333333333334M256 362.6666666666667C149.9733333333333 362.6666666666667 64 276.6933333333334 64 170.6666666666667S149.9733333333333 -21.3333333333333 256 -21.3333333333333S448 64.64 448 170.6666666666667S362.0266666666667 362.6666666666667 256 362.6666666666667M266.6666666666667 277.3333333333334H234.6666666666667V149.3333333333334L336 88.5333333333333L352 114.7733333333333L266.6666666666667 165.3333333333334V277.3333333333334M168.1066666666667 375.68L140.8 408.32L42.6666666666667 326.1866666666667L70.1866666666667 293.5466666666667L168.1066666666667 375.68M469.3333333333333 325.9733333333334L371.2 408.32L343.68 375.68L441.8133333333334 293.3333333333334L469.3333333333333 325.9733333333334z"/>
    <glyph glyph-name="alarm-check" unicode="" horiz-adv-x="512" d=" M224.8533333333333 138.0266666666667L179.4133333333333 183.4666666666667L156.8 160.8533333333334L224.64 93.0133333333333L352.64 221.0133333333333L330.0266666666667 243.6266666666667L224.8533333333334 138.0266666666667M256 21.3333333333334C173.44 21.3333333333334 106.6666666666667 88.1066666666667 106.6666666666667 170.6666666666667S173.44 320 256 320S405.3333333333333 253.2266666666667 405.3333333333333 170.6666666666667S338.56 21.3333333333334 256 21.3333333333334M256 362.6666666666667C149.9733333333333 362.6666666666667 64 276.6933333333334 64 170.6666666666667S149.9733333333333 -21.3333333333333 256 -21.3333333333333S448 64.64 448 170.6666666666667S362.0266666666667 362.6666666666667 256 362.6666666666667M168.1066666666667 375.68L140.8 408.32L42.6666666666667 326.1866666666667L70.1866666666667 293.5466666666667L168.1066666666667 375.68M469.3333333333333 325.9733333333334L371.2 408.32L343.68 375.68L441.8133333333334 293.3333333333334L469.3333333333333 325.9733333333334z"/>
    <glyph glyph-name="alarm-multiple" unicode="" horiz-adv-x="512" d=" M198.1866666666667 378.6666666666667L110.08 304.64L85.3333333333333 334.0800000000001L173.6533333333333 408.1066666666667L198.1866666666667 378.6666666666667M469.3333333333333 333.8666666666667L444.5866666666667 304.4266666666667L356.2666666666667 378.6666666666667L381.0133333333333 408.1066666666667L469.3333333333333 333.8666666666667M277.3333333333333 362.6666666666667C371.6266666666667 362.6666666666667 448 286.2933333333334 448 192S371.6266666666667 21.3333333333334 277.3333333333333 21.3333333333334S106.6666666666667 97.7066666666667 106.6666666666667 192S183.04 362.6666666666667 277.3333333333333 362.6666666666667M277.3333333333333 320C206.72 320 149.3333333333333 262.6133333333334 149.3333333333333 192S206.72 64 277.3333333333333 64S405.3333333333333 121.3866666666667 405.3333333333333 192S347.9466666666666 320 277.3333333333333 320M256 288H288V191.36L356.6933333333333 160L343.4666666666666 130.9866666666667L256 170.6666666666667V288M21.3333333333333 149.3333333333334C21.3333333333333 202.6666666666667 45.44 249.6 83.4133333333333 280.9600000000001C71.04 253.8666666666667 64 224 64 192L65.28 167.8933333333334L64 149.3333333333334C64 100.6933333333333 91.0933333333333 58.4533333333334 130.9866666666667 36.6933333333333C158.72 10.6666666666667 193.4933333333334 -8.32 232.32 -16.64C219.3066666666667 -19.6266666666667 205.8666666666667 -21.3333333333333 192 -21.3333333333333C97.7066666666667 -21.3333333333333 21.3333333333333 55.04 21.3333333333333 149.3333333333334z"/>
    <glyph glyph-name="alarm-off" unicode="" horiz-adv-x="512" d=" M170.6666666666667 378.0266666666667L140.8 408.32L122.4533333333333 393.1733333333334L152.7466666666667 362.6666666666667M351.36 55.68C325.5466666666666 34.3466666666667 292.2666666666667 21.3333333333334 256 21.3333333333334C173.44 21.3333333333334 106.6666666666667 88.1066666666667 106.6666666666667 170.6666666666667C106.6666666666667 206.9333333333333 119.68 240.2133333333334 141.0133333333333 266.0266666666667M62.2933333333333 399.1466666666667L35.2 371.8400000000001L64 343.4666666666667L39.8933333333333 323.6266666666667L70.1866666666667 293.3333333333334L93.8666666666667 313.3866666666667L110.9333333333333 296.32C81.7066666666667 262.6133333333334 64 218.6666666666667 64 170.6666666666667C64 64.64 149.9733333333333 -21.3333333333333 256 -21.3333333333333C304 -21.3333333333333 347.9466666666666 -3.6266666666667 381.6533333333333 25.6L428.5866666666667 -21.3333333333333L455.6799999999999 5.76L82.9866666666667 378.24L62.2933333333333 399.1466666666667M469.3333333333333 325.9733333333334L371.2 408.32L343.68 375.68L441.8133333333334 293.3333333333334L469.3333333333333 325.9733333333334M256 320C338.56 320 405.3333333333333 253.2266666666667 405.3333333333333 170.6666666666667C405.3333333333333 152.7466666666667 401.92 135.4666666666667 396.16 119.4666666666667L428.5866666666667 87.04C440.9599999999999 112.4266666666666 448 140.5866666666667 448 170.6666666666666C448 276.6933333333334 362.0266666666667 362.6666666666667 256 362.6666666666667C225.92 362.6666666666667 197.76 355.6266666666667 172.3733333333333 343.2533333333334L204.8 310.8266666666667C220.8 316.5866666666667 238.08 320 256 320z"/>
    <glyph glyph-name="alarm-plus" unicode="" horiz-adv-x="512" d=" M277.3333333333333 256H234.6666666666667V192H170.6666666666667V149.3333333333334H234.6666666666667V85.3333333333334H277.3333333333333V149.3333333333334H341.3333333333333V192H277.3333333333333M256 21.3333333333334C173.44 21.3333333333334 106.6666666666667 88.1066666666667 106.6666666666667 170.6666666666667S173.44 320 256 320S405.3333333333333 253.2266666666667 405.3333333333333 170.6666666666667S338.56 21.3333333333334 256 21.3333333333334M256 362.6666666666667C149.9733333333333 362.6666666666667 64 276.6933333333334 64 170.6666666666667S149.9733333333333 -21.3333333333333 256 -21.3333333333333S448 64.64 448 170.6666666666667S362.0266666666667 362.6666666666667 256 362.6666666666667M469.3333333333333 325.9733333333334L371.2 408.32L343.68 375.68L441.8133333333334 293.3333333333334M168.1066666666667 375.68L140.8 408.32L42.6666666666667 326.1866666666667L70.1866666666667 293.5466666666667L168.1066666666667 375.68z"/>
    <glyph glyph-name="album" unicode="" horiz-adv-x="512" d=" M256 213.3333333333334C244.2666666666667 213.3333333333334 234.6666666666667 203.7333333333334 234.6666666666667 192S244.2666666666667 170.6666666666667 256 170.6666666666667S277.3333333333333 180.2666666666667 277.3333333333333 192S267.7333333333334 213.3333333333334 256 213.3333333333334M256 96C202.6666666666667 96 160 138.6666666666667 160 192S202.6666666666667 288 256 288S352 245.3333333333334 352 192S309.3333333333333 96 256 96M256 405.3333333333333C138.24 405.3333333333333 42.6666666666667 309.76 42.6666666666667 192S138.24 -21.3333333333333 256 -21.3333333333333S469.3333333333333 74.24 469.3333333333333 192S373.76 405.3333333333333 256 405.3333333333333z"/>
    <glyph glyph-name="alert" unicode="" horiz-adv-x="512" d=" M277.3333333333333 149.3333333333334H234.6666666666667V234.6666666666667H277.3333333333333M277.3333333333333 64H234.6666666666667V106.6666666666667H277.3333333333333M21.3333333333333 0H490.6666666666666L256 405.3333333333333L21.3333333333333 0z"/>
    <glyph glyph-name="alert-box" unicode="" horiz-adv-x="512" d=" M106.6666666666667 384H405.3333333333333C428.8 384 448 364.8 448 341.3333333333334V42.6666666666667C448 19.2 428.8 0 405.3333333333333 0H106.6666666666667C83.2 0 64 19.2 64 42.6666666666667V341.3333333333334C64 364.8 83.2 384 106.6666666666667 384M277.3333333333333 170.6666666666667V298.6666666666667H234.6666666666667V170.6666666666667H277.3333333333333M277.3333333333333 85.3333333333334V128H234.6666666666667V85.3333333333334H277.3333333333333z"/>
    <glyph glyph-name="alert-circle" unicode="" horiz-adv-x="512" d=" M277.3333333333333 170.6666666666667H234.6666666666667V298.6666666666667H277.3333333333333M277.3333333333333 85.3333333333334H234.6666666666667V128H277.3333333333333M256 405.3333333333333C138.24 405.3333333333333 42.6666666666667 309.76 42.6666666666667 192S138.24 -21.3333333333333 256 -21.3333333333333S469.3333333333333 74.24 469.3333333333333 192S373.76 405.3333333333333 256 405.3333333333333z"/>
    <glyph glyph-name="alert-octagon" unicode="" horiz-adv-x="512" d=" M277.3333333333333 170.6666666666667H234.6666666666667V298.6666666666667H277.3333333333333M256 78.9333333333333C240.64 78.9333333333333 228.2666666666667 91.3066666666666 228.2666666666667 106.6666666666667C228.2666666666667 122.0266666666667 240.64 134.4 256 134.4C271.36 134.4 283.7333333333334 122.0266666666667 283.7333333333334 106.6666666666667C283.7333333333334 91.3066666666667 271.36 78.9333333333333 256 78.9333333333333M335.5733333333333 384H176.4266666666667L64 271.5733333333334V112.4266666666667L176.4266666666667 0H335.5733333333333L448 112.4266666666667V271.5733333333334L335.5733333333333 384z"/>
    <glyph glyph-name="alert-outline" unicode="" horiz-adv-x="512" d=" M256 405.3333333333333L21.3333333333333 0H490.6666666666666M256 320L416.64 42.6666666666667H95.36M234.6666666666667 234.6666666666667V149.3333333333334H277.3333333333333V234.6666666666667M234.6666666666667 106.6666666666667V64H277.3333333333333V106.6666666666667"/>
    <glyph glyph-name="alpha" unicode="" horiz-adv-x="512" d=" M385.7066666666666 68.2666666666667C375.8933333333333 65.4933333333333 367.1466666666666 64 359.4666666666666 64C333.8666666666666 64 316.5866666666666 82.7733333333333 307.8399999999999 120.5333333333334H306.7733333333333C285.6533333333333 79.7866666666668 255.9999999999999 59.52 218.6666666666666 59.52C190.7199999999999 59.52 168.3199999999999 69.9733333333333 151.4666666666666 91.0933333333334S126.2933333333333 138.6666666666667 126.2933333333333 170.6666666666667C126.2933333333333 208 135.8933333333333 237.8666666666667 154.88 261.12C173.8666666666667 284.3733333333334 199.68 296.1066666666667 232.32 296.1066666666667C249.8133333333334 296.1066666666667 265.6 291.2 279.2533333333334 281.6C292.9066666666667 271.7866666666667 303.36 258.1333333333334 310.6133333333334 240.4266666666667H311.4666666666667L326.6133333333333 291.6266666666667H381.2266666666666L335.5733333333333 178.1333333333333C340.6933333333333 151.68 346.0266666666666 133.5466666666667 351.9999999999999 123.9466666666667C357.1199999999999 114.3466666666667 364.3733333333332 109.44 373.3333333333333 109.44C378.4533333333332 109.44 382.5066666666666 110.2933333333333 386.1333333333333 111.7866666666666L385.7066666666666 68.2666666666667M294.8266666666666 180.0533333333334C290.3466666666666 204.16 283.0933333333333 222.9333333333333 273.28 235.7333333333333C263.68 248.7466666666667 251.9466666666667 255.1466666666667 238.5066666666667 255.1466666666667C221.0133333333333 255.1466666666667 206.9333333333333 247.2533333333334 196.48 231.68C186.0266666666667 215.8933333333333 181.3333333333333 196.48 181.3333333333333 173.6533333333333C181.3333333333333 152.7466666666667 185.3866666666667 135.4666666666667 194.56 121.3866666666667C203.52 107.3066666666666 215.68 100.48 230.8266666666667 100.48C243.6266666666666 100.48 255.36 106.6666666666666 265.8133333333333 118.4C276.48 130.56 285.2266666666667 148.2666666666667 292.2666666666667 171.52L294.8266666666666 180.0533333333333z"/>
    <glyph glyph-name="alphabetical" unicode="" horiz-adv-x="512" d=" M128 213.3333333333334C151.4666666666667 213.3333333333334 170.6666666666667 194.1333333333333 170.6666666666667 170.6666666666667V85.3333333333334H85.3333333333333C61.8666666666667 85.3333333333334 42.6666666666667 104.5333333333333 42.6666666666667 128V170.6666666666667C42.6666666666667 194.1333333333333 61.8666666666667 213.3333333333334 85.3333333333333 213.3333333333334H128M85.3333333333333 170.6666666666667V128H128V170.6666666666667H85.3333333333333M426.6666666666667 170.6666666666667V128H469.3333333333333V85.3333333333334H426.6666666666667C403.2 85.3333333333334 384 104.5333333333333 384 128V170.6666666666667C384 194.1333333333333 403.2 213.3333333333334 426.6666666666667 213.3333333333334H469.3333333333333V170.6666666666667H426.6666666666667M256 298.6666666666667V213.3333333333334H298.6666666666667C322.1333333333334 213.3333333333334 341.3333333333333 194.1333333333333 341.3333333333333 170.6666666666667V128C341.3333333333333 104.5333333333333 322.1333333333334 85.3333333333334 298.6666666666667 85.3333333333334H256C232.5333333333334 85.3333333333334 213.3333333333333 104.5333333333333 213.3333333333333 128V298.6666666666667H256M256 128H298.6666666666667V170.6666666666667H256V128z"/>
    <glyph glyph-name="amazon" unicode="" horiz-adv-x="512" d=" M339.84 83.4133333333334C336 80 330.6666666666667 79.7866666666666 326.4 82.1333333333334C307.4133333333333 97.92 304 105.1733333333334 293.5466666666666 120.3200000000001C262.1866666666666 88.3200000000001 240 78.72 199.2533333333333 78.72C151.2533333333333 78.72 113.7066666666666 108.3733333333334 113.7066666666666 167.6800000000001C113.7066666666666 214.1866666666667 138.6666666666666 245.3333333333334 174.72 261.1200000000001C205.8666666666666 274.7733333333335 249.1733333333333 277.3333333333334 282.2399999999999 280.9600000000001V288C282.2399999999999 302.0800000000001 283.3066666666666 318.0800000000001 275.2 329.8133333333334C268.3733333333332 340.2666666666667 254.9333333333333 344.7466666666667 243.2 344.7466666666667C221.44 344.7466666666667 202.0266666666666 333.44 197.3333333333333 310.4C196.2666666666666 305.28 191.9999999999999 300.1600000000001 187.3066666666666 299.9466666666667L131.8399999999999 305.92C127.1466666666666 306.9866666666667 122.0266666666666 310.6133333333334 123.3066666666666 317.8666666666667C136.1066666666666 385.0666666666667 196.9066666666666 405.3333333333333 251.3066666666666 405.3333333333333C279.0399999999999 405.3333333333333 315.3066666666666 397.8666666666667 337.2799999999999 376.9600000000001C365.0133333333333 350.9333333333334 362.6666666666667 316.1600000000001 362.6666666666667 278.4V189.44C362.6666666666667 162.7733333333333 373.3333333333333 150.8266666666667 384 136.5333333333333C387.6266666666667 131.2 388.48 125.0133333333333 384 121.3866666666667L340.0533333333333 83.4133333333333H339.84M282.24 222.72V234.6666666666667C240.8533333333334 234.6666666666667 197.12 226.3466666666667 197.12 177.7066666666667C197.12 152.96 210.1333333333333 136.1066666666667 231.8933333333334 136.1066666666667C248.1066666666667 136.1066666666667 262.4 146.1333333333334 271.5733333333333 162.1333333333334C282.6666666666667 181.9733333333334 282.24 200.5333333333334 282.24 222.72M430.08 31.1466666666667C384 -2.9866666666667 316.16 -21.3333333333333 258.1333333333334 -21.3333333333333C176.8533333333333 -21.3333333333333 103.4666666666667 8.7466666666667 48 58.88C43.7333333333333 62.72 47.5733333333333 68.0533333333333 53.3333333333333 65.0666666666666C112.64 30.2933333333333 186.6666666666667 9.3866666666667 263.04 9.3866666666667C314.4533333333333 9.3866666666667 371.2 20.0533333333333 423.2533333333334 42.0266666666666C431.1466666666667 45.44 437.3333333333333 36.9066666666667 430.08 31.1466666666667M449.4933333333334 53.3333333333333C443.52 61.0133333333333 410.0266666666667 56.96 394.6666666666667 55.0399999999999C390.6133333333333 54.6133333333332 389.9733333333334 58.4533333333333 394.0266666666667 61.4399999999999C420.4799999999999 80.2133333333333 464.2133333333333 74.6666666666666 469.3333333333333 68.4799999999999C474.4533333333333 62.0799999999999 467.84 18.3466666666665 442.88 -2.3466666666668C439.04 -5.7600000000001 435.4133333333333 -3.8400000000001 437.3333333333333 -1e-13C442.88 14.2933333333332 455.4666666666667 45.6533333333332 449.4933333333334 53.3333333333332z"/>
    <glyph glyph-name="amazon-clouddrive" unicode="" horiz-adv-x="512" d=" M105.3866666666667 210.7733333333334C111.5733333333333 210.7733333333334 117.3333333333333 209.9200000000001 122.88 208.4266666666667C123.0933333333333 254.0800000000001 160 291.2000000000001 205.8666666666667 291.2000000000001C240.4266666666667 291.2000000000001 270.2933333333333 269.8666666666668 282.4533333333333 239.5733333333334C295.04 256 314.4533333333333 266.0266666666667 336.2133333333333 266.0266666666667C373.3333333333333 266.0266666666667 404.0533333333334 235.7333333333334 404.0533333333334 198.1866666666667C404.0533333333334 193.0666666666667 403.4133333333333 187.7333333333334 402.3466666666667 182.8266666666667C407.4666666666667 184.7466666666667 413.2266666666668 185.8133333333334 419.2000000000001 185.8133333333334C446.9333333333334 185.8133333333334 469.3333333333334 163.2000000000001 469.3333333333334 135.4666666666667C469.3333333333334 107.7333333333334 446.9333333333334 85.3333333333334 419.2000000000001 85.3333333333334H105.3866666666667C70.8266666666667 85.3333333333334 42.6666666666667 113.4933333333334 42.6666666666667 148.0533333333334C42.6666666666667 182.8266666666667 70.8266666666667 210.7733333333333 105.3866666666667 210.7733333333333z"/>
    <glyph glyph-name="ambulance" unicode="" horiz-adv-x="512" d=" M384 53.3333333333334C401.7066666666666 53.3333333333334 416 67.6266666666667 416 85.3333333333334S401.7066666666666 117.3333333333334 384 117.3333333333334S352 103.04 352 85.3333333333334S366.2933333333334 53.3333333333334 384 53.3333333333334M416 245.3333333333334H362.6666666666667V192H457.8133333333333L416 245.3333333333334M128 53.3333333333334C145.7066666666667 53.3333333333334 160 67.6266666666667 160 85.3333333333334S145.7066666666667 117.3333333333334 128 117.3333333333334S96 103.04 96 85.3333333333334S110.2933333333333 53.3333333333334 128 53.3333333333334M426.6666666666667 277.3333333333334L490.6666666666666 192V85.3333333333334H448C448 49.92 419.4133333333333 21.3333333333334 384 21.3333333333334S320 49.92 320 85.3333333333334H192C192 49.92 163.4133333333333 21.3333333333334 128 21.3333333333334S64 49.92 64 85.3333333333334H21.3333333333333V320C21.3333333333333 343.68 40.32 362.6666666666667 64 362.6666666666667H362.6666666666667V277.3333333333334H426.6666666666667M170.6666666666667 320V256H106.6666666666667V213.3333333333334H170.6666666666667V149.3333333333334H213.3333333333333V213.3333333333334H277.3333333333333V256H213.3333333333333V320H170.6666666666667z"/>
    <glyph glyph-name="anchor" unicode="" horiz-adv-x="512" d=" M256 405.3333333333333C220.5866666666667 405.3333333333333 192 376.7466666666667 192 341.3333333333334C192 314.24 209.0666666666667 290.1333333333334 234.6666666666667 280.9600000000001V234.6666666666667H170.6666666666667V192H234.6666666666667V44.3733333333333C195.4133333333333 50.5599999999999 160.64 73.1733333333334 139.3066666666667 106.6666666666667H170.6666666666667V149.3333333333334H64V42.6666666666667H106.6666666666667V78.9333333333333C140.3733333333333 29.6533333333334 196.2666666666667 0 256 0S371.6266666666667 29.6533333333334 405.3333333333333 78.72V42.6666666666667H448V149.3333333333334H341.3333333333333V106.6666666666667H372.48C351.1466666666667 73.3866666666667 316.3733333333334 50.5600000000001 277.3333333333333 44.3733333333333V192H341.3333333333333V234.6666666666667H277.3333333333333V281.1733333333334C302.9333333333333 290.1333333333334 320 314.24 320 341.3333333333334C320 376.7466666666667 291.4133333333333 405.3333333333333 256 405.3333333333333M256 362.6666666666667C267.7333333333334 362.6666666666667 277.3333333333333 353.0666666666667 277.3333333333333 341.3333333333334S267.7333333333334 320 256 320S234.6666666666667 329.6 234.6666666666667 341.3333333333334S244.2666666666667 362.6666666666667 256 362.6666666666667z"/>
    <glyph glyph-name="android" unicode="" horiz-adv-x="512" d=" M320 341.3333333333334H298.6666666666667V362.6666666666667H320M213.3333333333333 341.3333333333334H192V362.6666666666667H213.3333333333333M331.3066666666667 401.92L359.2533333333334 429.8666666666667C363.3066666666667 433.92 363.3066666666667 440.7466666666667 359.2533333333334 445.0133333333333C354.9866666666667 449.0666666666667 348.16 449.0666666666667 344.1066666666667 445.0133333333333L312.5333333333333 413.44C295.4666666666667 421.76 276.2666666666667 426.6666666666667 256 426.6666666666667C235.52 426.6666666666667 216.32 421.76 199.2533333333333 413.2266666666667L167.4666666666667 445.0133333333333C163.4133333333333 449.0666666666667 156.5866666666667 449.0666666666667 152.5333333333333 445.0133333333333C148.2666666666667 440.7466666666667 148.2666666666667 433.92 152.5333333333333 429.8666666666667L180.48 401.92C148.6933333333333 378.4533333333334 128 341.3333333333334 128 298.6666666666667H384C384 341.3333333333334 362.6666666666667 378.6666666666667 331.3066666666666 401.92M437.3333333333333 277.3333333333334C419.6266666666667 277.3333333333334 405.3333333333333 263.04 405.3333333333333 245.3333333333334V96C405.3333333333333 78.2933333333334 419.6266666666667 64 437.3333333333333 64S469.3333333333333 78.2933333333334 469.3333333333333 96V245.3333333333334C469.3333333333333 263.04 455.04 277.3333333333334 437.3333333333333 277.3333333333334M74.6666666666667 277.3333333333334C56.96 277.3333333333334 42.6666666666667 263.04 42.6666666666667 245.3333333333334V96C42.6666666666667 78.2933333333334 56.96 64 74.6666666666667 64S106.6666666666667 78.2933333333334 106.6666666666667 96V245.3333333333334C106.6666666666667 263.04 92.3733333333333 277.3333333333334 74.6666666666667 277.3333333333334M128 64C128 52.2666666666667 137.6 42.6666666666667 149.3333333333333 42.6666666666667H170.6666666666667V-32C170.6666666666667 -49.7066666666666 184.96 -64 202.6666666666667 -64S234.6666666666667 -49.7066666666666 234.6666666666667 -32V42.6666666666667H277.3333333333333V-32C277.3333333333333 -49.7066666666666 291.6266666666667 -64 309.3333333333333 -64S341.3333333333333 -49.7066666666666 341.3333333333333 -32V42.6666666666667H362.6666666666667C374.4 42.6666666666667 384 52.2666666666667 384 64V277.3333333333334H128V64z"/>
    <glyph glyph-name="android-debug-bridge" unicode="" horiz-adv-x="512" d=" M320 256C308.2666666666667 256 298.6666666666667 265.6 298.6666666666667 277.3333333333334S308.2666666666667 298.6666666666667 320 298.6666666666667S341.3333333333333 289.0666666666667 341.3333333333333 277.3333333333334S331.7333333333334 256 320 256M192 256C180.2666666666667 256 170.6666666666667 265.6 170.6666666666667 277.3333333333334S180.2666666666667 298.6666666666667 192 298.6666666666667S213.3333333333333 289.0666666666667 213.3333333333333 277.3333333333334S203.7333333333334 256 192 256M343.8933333333333 354.7733333333333L388.6933333333334 399.5733333333333L371.2000000000001 417.28L321.92 368C302.08 378.0266666666667 279.68 384 256 384C232.1066666666667 384 209.92 378.0266666666667 190.08 368L140.8 417.28L123.3066666666667 399.5733333333333L168.1066666666666 354.7733333333333C130.9866666666667 327.68 106.6666666666667 284.1600000000001 106.6666666666667 234.6666666666667V213.3333333333334H405.3333333333333V234.6666666666667C405.3333333333333 284.1600000000001 381.0133333333333 327.68 343.8933333333333 354.7733333333333M106.6666666666667 106.6666666666667C106.6666666666667 24.3200000000001 173.44 -42.6666666666666 256 -42.6666666666666S405.3333333333333 24.1066666666667 405.3333333333333 106.6666666666667V192H106.6666666666667V106.6666666666667z"/>
    <glyph glyph-name="android-studio" unicode="" horiz-adv-x="512" d=" M234.6666666666667 405.3333333333333H277.3333333333333V362.6666666666667H288C305.7066666666667 362.6666666666667 320 348.3733333333334 320 330.6666666666667V256L310.6133333333334 246.6133333333334L345.6 186.0266666666667C369.28 209.28 384 241.4933333333334 384 277.3333333333334H426.6666666666667C426.6666666666667 225.7066666666667 403.84 179.4133333333334 367.5733333333333 148.0533333333334L434.56 32L437.3333333333333 -15.36L397.44 10.6666666666667L331.9466666666666 124.3733333333333C309.3333333333333 113.0666666666667 283.3066666666666 106.6666666666667 256 106.6666666666667C228.6933333333333 106.6666666666667 202.6666666666666 113.0666666666667 180.0533333333333 124.3733333333333L114.56 10.6666666666667L74.6666666666667 -15.36L77.44 32L201.3866666666667 246.6133333333334L192 256V330.6666666666667C192 348.3733333333334 206.2933333333333 362.6666666666667 224 362.6666666666667H234.6666666666667V405.3333333333333M201.3866666666667 161.4933333333334C218.0266666666667 153.6 236.5866666666667 149.3333333333334 256 149.3333333333334C275.4133333333333 149.3333333333334 293.9733333333333 153.6 310.6133333333334 161.4933333333334L279.4666666666667 215.4666666666667H279.2533333333334C266.0266666666667 202.6666666666667 245.9733333333333 202.6666666666667 232.7466666666667 215.4666666666667H232.5333333333334L201.3866666666667 161.4933333333334M256 320C244.2666666666667 320 234.6666666666667 310.4 234.6666666666667 298.6666666666667S244.2666666666667 277.3333333333334 256 277.3333333333334S277.3333333333333 286.9333333333334 277.3333333333333 298.6666666666667S267.7333333333334 320 256 320z"/>
    <glyph glyph-name="apple" unicode="" horiz-adv-x="512" d=" M399.1466666666667 32C381.4400000000001 5.5466666666667 362.6666666666667 -20.2666666666666 334.08 -20.6933333333333C305.4933333333334 -21.3333333333333 296.32 -3.84 263.8933333333333 -3.84C231.2533333333334 -3.84 221.2266666666667 -20.2666666666666 194.1333333333334 -21.3333333333333C166.1866666666667 -22.4 145.0666666666667 6.8266666666667 127.1466666666667 32.64C90.6666666666667 85.3333333333334 62.72 182.4 100.2666666666667 247.68C118.8266666666667 280.1066666666667 152.1066666666667 300.5866666666667 188.16 301.2266666666667C215.4666666666667 301.6533333333333 241.4933333333334 282.6666666666667 258.3466666666667 282.6666666666667C274.9866666666666 282.6666666666667 306.56 305.4933333333334 339.6266666666667 302.08C353.4933333333334 301.44 392.32 296.5333333333333 417.28 259.8400000000001C415.36 258.56 370.9866666666667 232.5333333333334 371.4133333333333 178.56C372.0533333333334 114.1333333333333 427.9466666666666 92.5866666666667 428.5866666666667 92.3733333333333C427.9466666666666 90.88 419.6266666666666 61.6533333333333 399.1466666666667 32M277.3333333333333 373.3333333333334C292.9066666666667 391.04 318.72 404.48 340.0533333333333 405.3333333333333C342.8266666666667 380.3733333333334 332.8 355.2000000000001 317.8666666666666 337.2800000000001C303.1466666666667 319.1466666666667 278.8266666666666 305.0666666666667 254.9333333333333 306.9866666666667C251.7333333333333 331.5200000000001 263.68 357.12 277.3333333333333 373.3333333333334z"/>
    <glyph glyph-name="apple-finder" unicode="" horiz-adv-x="512" d=" M85.3333333333333 362.6666666666667H253.6533333333334C265.8133333333334 385.92 280.1066666666667 407.8933333333333 297.1733333333333 426.6666666666667L320.8533333333333 402.9866666666667C311.68 390.4 303.5733333333333 376.7466666666667 296.32 362.6666666666667H426.6666666666667C450.1333333333334 362.6666666666667 469.3333333333333 343.4666666666667 469.3333333333333 320V42.6666666666667C469.3333333333333 19.2 450.1333333333334 0 426.6666666666667 0H318.5066666666667L325.5466666666666 -26.24L286.5066666666667 -41.6L275.84 0H85.3333333333333C61.8666666666667 0 42.6666666666667 19.2 42.6666666666667 42.6666666666667V320C42.6666666666667 343.4666666666667 61.8666666666667 362.6666666666667 85.3333333333333 362.6666666666667M85.3333333333333 320V42.6666666666667H267.52C266.6666666666667 49.7066666666667 265.3866666666667 56.7466666666667 264.5333333333333 64H256C197.3333333333333 64 144.64 74.6666666666667 109.44 90.4533333333333L128.8533333333333 125.44C149.3333333333333 114.3466666666667 195.6266666666667 106.6666666666667 256 106.6666666666667H261.12C260.48 120.96 260.6933333333334 135.2533333333333 261.76 149.3333333333334H192S200.5333333333333 235.3066666666667 234.6666666666667 320H85.3333333333333M426.6666666666667 42.6666666666667V320H277.3333333333333C258.1333333333334 272.64 247.04 224.8533333333333 241.0666666666667 192H302.2933333333334C298.6666666666667 164.6933333333334 298.0266666666667 136.1066666666667 299.9466666666667 108.16C338.5600000000001 110.9333333333334 368.0000000000001 117.3333333333334 383.1466666666667 125.4400000000001L402.56 90.4533333333334C377.3866666666667 78.9333333333334 343.4666666666667 70.4 304.8533333333334 66.3466666666668C306.1333333333334 58.2400000000001 307.4133333333333 50.3466666666668 309.3333333333334 42.6666666666667H426.6666666666667M128 277.3333333333334H170.6666666666667V213.3333333333334H128V277.3333333333334M341.3333333333333 277.3333333333334H384V213.3333333333334H341.3333333333333V277.3333333333334z"/>
    <glyph glyph-name="apple-ios" unicode="" horiz-adv-x="512" d=" M426.6666666666667 256V298.6666666666667H341.3333333333333C317.8666666666667 298.6666666666667 298.6666666666667 279.4666666666667 298.6666666666667 256V213.3333333333334C298.6666666666667 189.8666666666667 317.8666666666667 170.6666666666667 341.3333333333333 170.6666666666667H384V128H298.6666666666667V85.3333333333334H384C407.4666666666667 85.3333333333334 426.6666666666667 104.5333333333333 426.6666666666667 128V170.6666666666667C426.6666666666667 194.1333333333333 407.4666666666667 213.3333333333334 384 213.3333333333334H341.3333333333333V256M234.6666666666667 128H192V256H234.6666666666667M234.6666666666667 298.6666666666667H192C168.5333333333333 298.6666666666667 149.3333333333333 279.4666666666667 149.3333333333333 256V128C149.3333333333333 104.5333333333333 168.5333333333333 85.3333333333334 192 85.3333333333334H234.6666666666667C258.1333333333334 85.3333333333334 277.3333333333333 104.5333333333333 277.3333333333333 128V256C277.3333333333333 279.4666666666667 258.1333333333334 298.6666666666667 234.6666666666667 298.6666666666667M85.3333333333333 85.3333333333334H128V213.3333333333334H85.3333333333333M85.3333333333333 256H128V298.6666666666667H85.3333333333333V256z"/>
    <glyph glyph-name="apple-mobileme" unicode="" horiz-adv-x="512" d=" M469.3333333333333 127.1466666666667C469.3333333333333 80.4266666666667 431.7866666666667 42.6666666666667 385.4933333333334 42.6666666666667H126.5066666666667C80.2133333333333 42.6666666666667 42.6666666666667 80.4266666666667 42.6666666666667 127.1466666666667C42.6666666666667 169.1733333333334 73.1733333333333 203.9466666666667 113.28 210.3466666666667C112.64 213.3333333333334 112.4266666666667 216.32 112.4266666666667 219.5200000000001C112.4266666666667 248.9600000000001 136.1066666666667 273.0666666666667 165.5466666666667 273.0666666666667C178.56 273.0666666666667 190.72 268.1600000000001 199.8933333333334 260.2666666666667C216.32 297.6 237.44 331.9466666666667 296.7466666666667 331.9466666666667C368.64 331.9466666666667 402.56 276.0533333333334 402.56 216.96C402.56 214.6133333333334 402.56 212.0533333333334 402.3466666666667 209.7066666666667C440.5333333333333 201.8133333333334 469.3333333333333 167.8933333333334 469.3333333333333 127.1466666666667z"/>
    <glyph glyph-name="apple-safari" unicode="" horiz-adv-x="512" d=" M256 405.3333333333333C373.76 405.3333333333333 469.3333333333333 309.76 469.3333333333333 192S373.76 -21.3333333333333 256 -21.3333333333333S42.6666666666667 74.24 42.6666666666667 192S138.24 405.3333333333333 256 405.3333333333333M256 362.6666666666667C161.7066666666667 362.6666666666667 85.3333333333333 286.2933333333334 85.3333333333333 192C85.3333333333333 147.4133333333334 102.4 106.6666666666667 130.3466666666666 76.5866666666667L210.7733333333333 237.2266666666667L371.4133333333333 317.6533333333334C341.3333333333333 345.6 300.5866666666667 362.6666666666667 256 362.6666666666667M256 21.3333333333334C350.2933333333334 21.3333333333334 426.6666666666667 97.7066666666667 426.6666666666667 192C426.6666666666667 236.5866666666667 409.6 277.3333333333334 381.6533333333333 307.4133333333334L301.2266666666667 146.7733333333333L140.5866666666667 66.3466666666667C170.6666666666667 38.4 211.4133333333333 21.3333333333334 256 21.3333333333334M256 192L239.5733333333333 208.4266666666667L206.9333333333333 142.9333333333333L272.4266666666666 175.5733333333333L256 192M256 74.6666666666667H277.3333333333333V42.6666666666667H256V74.6666666666667M338.7733333333333 109.0133333333333L353.92 124.16L376.5333333333333 101.5466666666667L361.3866666666666 86.4L338.7733333333333 109.0133333333334M373.3333333333333 192V213.3333333333334H405.3333333333333V192H373.3333333333333M256 309.3333333333334H234.6666666666667V341.3333333333334H256V309.3333333333334M173.2266666666666 274.9866666666667L158.08 259.8400000000001L135.4666666666667 282.4533333333334L150.6133333333333 297.6L173.2266666666666 274.9866666666667M138.6666666666667 192V170.6666666666667H106.6666666666667V192H138.6666666666667z"/>
    <glyph glyph-name="appnet" unicode="" horiz-adv-x="512" d=" M308.6933333333334 253.0133333333333C321.4933333333334 283.9466666666667 345.1733333333333 356.6933333333334 348.8 369.4933333333334C352 382.08 361.6 384 366.9333333333334 384H410.6666666666668C417.9200000000001 384 421.9733333333334 378.4533333333333 420.2666666666667 369.4933333333334C374.4000000000001 207.5733333333334 343.2533333333334 160 343.2533333333334 149.3333333333334C343.2533333333334 122.0266666666667 372.4800000000001 71.04 399.7866666666667 71.04C416.0000000000001 71.04 412.5866666666667 94.72 430.7200000000001 94.72H465.28C470.8266666666667 94.72 476.1600000000001 89.1733333333333 476.1600000000001 79.9999999999999C476.1600000000001 71.0399999999999 466.1333333333334 -1e-13 397.0133333333334 -1e-13C327.6800000000001 -1e-13 301.8666666666667 83.6266666666666 301.8666666666667 83.6266666666666C292.9066666666667 65.4933333333332 239.5733333333334 -1e-13 174.0800000000001 -1e-13C57.6 -1e-13 35.84 123.7333333333332 35.84 196.4799999999999C35.84 269.4400000000001 70.4 384 168.7466666666667 384C266.6666666666667 384 308.6933333333333 253.0133333333333 308.6933333333333 253.0133333333333M96 202.0266666666667C96 160 94.08 72.7466666666667 170.6666666666667 71.0400000000001C214.1866666666667 69.1200000000001 254.08 123.7333333333334 273.28 167.4666666666667C246.8266666666667 258.3466666666667 228.6933333333334 312.9600000000001 170.6666666666667 312.9600000000001C92.16 311.2533333333334 96 202.0266666666667 96 202.0266666666667z"/>
    <glyph glyph-name="apps" unicode="" horiz-adv-x="512" d=" M341.3333333333333 21.3333333333334H426.6666666666667V106.6666666666667H341.3333333333333M341.3333333333333 149.3333333333334H426.6666666666667V234.6666666666667H341.3333333333333M213.3333333333333 277.3333333333334H298.6666666666667V362.6666666666667H213.3333333333333M341.3333333333333 277.3333333333334H426.6666666666667V362.6666666666667H341.3333333333333M213.3333333333333 149.3333333333334H298.6666666666667V234.6666666666667H213.3333333333333M85.3333333333333 149.3333333333334H170.6666666666667V234.6666666666667H85.3333333333333M85.3333333333333 21.3333333333334H170.6666666666667V106.6666666666667H85.3333333333333M213.3333333333333 21.3333333333334H298.6666666666667V106.6666666666667H213.3333333333333M85.3333333333333 277.3333333333334H170.6666666666667V362.6666666666667H85.3333333333333V277.3333333333334z"/>
    <glyph glyph-name="archive" unicode="" horiz-adv-x="512" d=" M64 384H448V298.6666666666667H64V384M85.3333333333333 277.3333333333334H426.6666666666667V0H85.3333333333333V277.3333333333334M202.6666666666667 213.3333333333334C196.6933333333333 213.3333333333334 192 208.64 192 202.6666666666667V170.6666666666667H320V202.6666666666667C320 208.64 315.3066666666666 213.3333333333334 309.3333333333333 213.3333333333334H202.6666666666667z"/>
    <glyph glyph-name="arrange-bring-forward" unicode="" horiz-adv-x="512" d=" M42.6666666666667 405.3333333333333H341.3333333333333V106.6666666666667H42.6666666666667V405.3333333333333M469.3333333333333 277.3333333333334V-21.3333333333333H170.6666666666667V64H213.3333333333333V21.3333333333334H426.6666666666667V234.6666666666667H384V277.3333333333334H469.3333333333333z"/>
    <glyph glyph-name="arrange-bring-to-front" unicode="" horiz-adv-x="512" d=" M42.6666666666667 405.3333333333333H234.6666666666667V320H192V362.6666666666667H85.3333333333333V256H128V213.3333333333334H42.6666666666667V405.3333333333333M469.3333333333333 170.6666666666667V-21.3333333333333H277.3333333333333V64H320V21.3333333333334H426.6666666666667V128H384V170.6666666666667H469.3333333333333M170.6666666666667 277.3333333333334H341.3333333333333V106.6666666666667H170.6666666666667V277.3333333333334z"/>
    <glyph glyph-name="arrange-send-backward" unicode="" horiz-adv-x="512" d=" M42.6666666666667 405.3333333333333H341.3333333333333V106.6666666666667H42.6666666666667V405.3333333333333M469.3333333333333 277.3333333333334V-21.3333333333333H170.6666666666667V64H384V277.3333333333334H469.3333333333333M85.3333333333333 362.6666666666667V149.3333333333334H298.6666666666667V362.6666666666667H85.3333333333333z"/>
    <glyph glyph-name="arrange-send-to-back" unicode="" horiz-adv-x="512" d=" M42.6666666666667 405.3333333333333H234.6666666666667V213.3333333333334H42.6666666666667V405.3333333333333M192 362.6666666666667H85.3333333333333V256H192V362.6666666666667M469.3333333333333 170.6666666666667V-21.3333333333333H277.3333333333333V170.6666666666667H469.3333333333333M320 21.3333333333334H426.6666666666667V128H320V21.3333333333334M341.3333333333333 277.3333333333334V213.3333333333334H277.3333333333333V277.3333333333334H341.3333333333333M234.6666666666667 106.6666666666667H170.6666666666667V170.6666666666667H234.6666666666667V106.6666666666667z"/>
    <glyph glyph-name="arrow-all" unicode="" horiz-adv-x="512" d=" M277.3333333333333 213.3333333333334H384L352 245.3333333333334L382.2933333333334 275.6266666666667L465.92 192L382.2933333333334 108.3733333333333L352 138.6666666666667L384 170.6666666666667H277.3333333333333V64L309.3333333333333 96L339.6266666666667 65.7066666666667L256 -17.92L172.3733333333333 65.7066666666667L202.6666666666667 96L234.6666666666667 64V170.6666666666667H128L160 138.6666666666667L129.7066666666667 108.3733333333333L46.08 192L129.7066666666667 275.6266666666667L160 245.3333333333334L128 213.3333333333334H234.6666666666667V320L202.6666666666667 288L172.3733333333333 318.2933333333334L256 401.92L339.6266666666667 318.2933333333334L309.3333333333333 288L277.3333333333333 320V213.3333333333334z"/>
    <glyph glyph-name="arrow-bottom-drop-circle" unicode="" horiz-adv-x="512" d=" M256 405.3333333333333C138.24 405.3333333333333 42.6666666666667 309.76 42.6666666666667 192S138.24 -21.3333333333333 256 -21.3333333333333S469.3333333333333 74.24 469.3333333333333 192S373.76 405.3333333333333 256 405.3333333333333M256 149.3333333333334L170.6666666666667 234.6666666666667H341.3333333333333"/>
    <glyph glyph-name="arrow-bottom-left" unicode="" horiz-adv-x="512" d=" M405.3333333333333 311.2533333333334L375.2533333333334 341.3333333333334L149.3333333333333 115.4133333333334V256H106.6666666666667V42.6666666666667H320V85.3333333333334H179.4133333333333L405.3333333333333 311.2533333333334z"/>
    <glyph glyph-name="arrow-bottom-right" unicode="" horiz-adv-x="512" d=" M106.6666666666667 311.2533333333334L136.7466666666667 341.3333333333334L362.6666666666667 115.4133333333334V256H405.3333333333333V42.6666666666667H192V85.3333333333334H332.5866666666667L106.6666666666667 311.2533333333334z"/>
    <glyph glyph-name="arrow-collapse" unicode="" horiz-adv-x="512" d=" M416 382.0800000000001L446.08 352L350.08 256H426.6666666666667V213.3333333333334H277.3333333333333V362.6666666666667H320V286.0800000000001L416 382.0800000000001M446.08 32L416 1.92L320 97.92V21.3333333333334H277.3333333333333V170.6666666666667H426.6666666666667V128H350.08L446.08 32M96 382.0800000000001L192 286.0800000000001V362.6666666666667H234.6666666666667V213.3333333333334H85.3333333333333V256H161.92L65.92 352L96 382.0800000000001M65.92 32L161.92 128H85.3333333333333V170.6666666666667H234.6666666666667V21.3333333333334H192V97.92L96 1.92L65.92 32z"/>
    <glyph glyph-name="arrow-down" unicode="" horiz-adv-x="512" d=" M234.6666666666667 362.6666666666667H277.3333333333333V106.6666666666667L394.6666666666667 224L424.9600000000001 193.7066666666667L256 24.7466666666667L87.04 193.7066666666667L117.3333333333333 224L234.6666666666667 106.6666666666667V362.6666666666667z"/>
    <glyph glyph-name="arrow-down-bold" unicode="" horiz-adv-x="512" d=" M213.3333333333333 362.6666666666667H298.6666666666667V170.6666666666667L373.3333333333333 245.3333333333334L424.9600000000001 193.7066666666667L256 24.7466666666667L87.04 193.7066666666667L138.6666666666667 245.3333333333334L213.3333333333333 170.6666666666667V362.6666666666667z"/>
    <glyph glyph-name="arrow-down-bold-circle" unicode="" horiz-adv-x="512" d=" M256 405.3333333333333C373.76 405.3333333333333 469.3333333333333 309.76 469.3333333333333 192S373.76 -21.3333333333333 256 -21.3333333333333S42.6666666666667 74.24 42.6666666666667 192S138.24 405.3333333333333 256 405.3333333333333M256 85.3333333333334L362.6666666666667 192H298.6666666666667V277.3333333333334H213.3333333333333V192H149.3333333333333L256 85.3333333333334z"/>
    <glyph glyph-name="arrow-down-bold-circle-outline" unicode="" horiz-adv-x="512" d=" M256 85.3333333333334L149.3333333333333 192H213.3333333333333V277.3333333333334H298.6666666666667V192H362.6666666666667L256 85.3333333333334M256 405.3333333333333C373.76 405.3333333333333 469.3333333333333 309.76 469.3333333333333 192S373.76 -21.3333333333333 256 -21.3333333333333S42.6666666666667 74.24 42.6666666666667 192S138.24 405.3333333333333 256 405.3333333333333M256 362.6666666666667C161.7066666666667 362.6666666666667 85.3333333333333 286.2933333333334 85.3333333333333 192S161.7066666666667 21.3333333333334 256 21.3333333333334S426.6666666666667 97.7066666666667 426.6666666666667 192S350.2933333333334 362.6666666666667 256 362.6666666666667z"/>
    <glyph glyph-name="arrow-down-bold-hexagon-outline" unicode="" horiz-adv-x="512" d=" M256 85.3333333333334L149.3333333333333 192H213.3333333333333V277.3333333333334H298.6666666666667V192H362.6666666666667L256 85.3333333333334M448 96C448 87.8933333333334 443.52 80.8533333333334 436.6933333333333 77.2266666666667L268.16 -17.4933333333333C264.7466666666666 -20.0533333333333 260.48 -21.3333333333333 256 -21.3333333333333C251.5199999999999 -21.3333333333333 247.2533333333333 -20.0533333333333 243.84 -17.4933333333333L75.3066666666666 77.2266666666667C68.48 80.8533333333334 63.9999999999999 87.8933333333334 63.9999999999999 96V288C63.9999999999999 296.1066666666667 68.4799999999999 303.1466666666667 75.3066666666666 306.7733333333333L243.84 401.4933333333334C247.2533333333333 404.0533333333334 251.5199999999999 405.3333333333334 256 405.3333333333334C260.48 405.3333333333334 264.7466666666666 404.0533333333334 268.16 401.4933333333334L436.6933333333333 306.7733333333333C443.52 303.1466666666667 448 296.1066666666667 448 288V96M256 359.4666666666667L106.6666666666667 275.4133333333334V108.5866666666667L256 24.5333333333333L405.3333333333333 108.5866666666667V275.4133333333334L256 359.4666666666667z"/>
    <glyph glyph-name="arrow-expand" unicode="" horiz-adv-x="512" d=" M202.6666666666667 168.7466666666667L232.7466666666667 138.6666666666667L136.7466666666667 42.6666666666667H213.3333333333333V0H64V149.3333333333334H106.6666666666667V72.7466666666667L202.6666666666667 168.7466666666667M232.7466666666667 245.3333333333334L202.6666666666667 215.2533333333333L106.6666666666667 311.2533333333334V234.6666666666667H64V384H213.3333333333333V341.3333333333334H136.7466666666667L232.7466666666667 245.3333333333334M309.3333333333333 168.7466666666667L405.3333333333333 72.7466666666667V149.3333333333334H448V0H298.6666666666667V42.6666666666667H375.2533333333334L279.2533333333334 138.6666666666667L309.3333333333333 168.7466666666667M279.2533333333334 245.3333333333334L375.2533333333334 341.3333333333334H298.6666666666667V384H448V234.6666666666667H405.3333333333333V311.2533333333334L309.3333333333333 215.2533333333333L279.2533333333334 245.3333333333334z"/>
    <glyph glyph-name="arrow-left" unicode="" horiz-adv-x="512" d=" M426.6666666666667 213.3333333333334V170.6666666666667H170.6666666666667L288 53.3333333333334L257.7066666666667 23.04L88.7466666666667 192L257.7066666666667 360.9600000000001L288 330.6666666666667L170.6666666666667 213.3333333333334H426.6666666666667z"/>
    <glyph glyph-name="arrow-left-bold" unicode="" horiz-adv-x="512" d=" M426.6666666666667 234.6666666666667V149.3333333333334H234.6666666666667L309.3333333333333 74.6666666666667L257.7066666666667 23.04L88.7466666666667 192L257.7066666666667 360.9600000000001L309.3333333333333 309.3333333333334L234.6666666666667 234.6666666666667H426.6666666666667z"/>
    <glyph glyph-name="arrow-left-bold-circle" unicode="" horiz-adv-x="512" d=" M469.3333333333333 192C469.3333333333333 74.24 373.76 -21.3333333333333 256 -21.3333333333333S42.6666666666667 74.24 42.6666666666667 192S138.24 405.3333333333333 256 405.3333333333333S469.3333333333333 309.76 469.3333333333333 192M149.3333333333333 192L256 85.3333333333334V149.3333333333334H341.3333333333333V234.6666666666667H256V298.6666666666667L149.3333333333333 192z"/>
    <glyph glyph-name="arrow-left-bold-circle-outline" unicode="" horiz-adv-x="512" d=" M149.3333333333333 192L256 298.6666666666667V234.6666666666667H341.3333333333333V149.3333333333334H256V85.3333333333334L149.3333333333333 192M469.3333333333333 192C469.3333333333333 74.24 373.76 -21.3333333333333 256 -21.3333333333333S42.6666666666667 74.24 42.6666666666667 192S138.24 405.3333333333333 256 405.3333333333333S469.3333333333333 309.76 469.3333333333333 192M426.6666666666667 192C426.6666666666667 286.2933333333334 350.2933333333334 362.6666666666667 256 362.6666666666667S85.3333333333333 286.2933333333334 85.3333333333333 192S161.7066666666667 21.3333333333334 256 21.3333333333334S426.6666666666667 97.7066666666667 426.6666666666667 192z"/>
    <glyph glyph-name="arrow-left-bold-hexagon-outline" unicode="" horiz-adv-x="512" d=" M149.3333333333333 192L256 298.6666666666667V234.6666666666667H341.3333333333333V149.3333333333334H256V85.3333333333334L149.3333333333333 192M448 96C448 87.8933333333334 443.52 80.8533333333334 436.6933333333333 77.2266666666667L268.16 -17.4933333333333C264.7466666666666 -20.0533333333333 260.48 -21.3333333333333 256 -21.3333333333333C251.5199999999999 -21.3333333333333 247.2533333333333 -20.0533333333333 243.84 -17.4933333333333L75.3066666666666 77.2266666666667C68.48 80.8533333333334 63.9999999999999 87.8933333333334 63.9999999999999 96V288C63.9999999999999 296.1066666666667 68.4799999999999 303.1466666666667 75.3066666666666 306.7733333333333L243.84 401.4933333333334C247.2533333333333 404.0533333333334 251.5199999999999 405.3333333333334 256 405.3333333333334C260.48 405.3333333333334 264.7466666666666 404.0533333333334 268.16 401.4933333333334L436.6933333333333 306.7733333333333C443.52 303.1466666666667 448 296.1066666666667 448 288V96M256 359.4666666666667L106.6666666666667 275.4133333333334V108.5866666666667L256 24.5333333333333L405.3333333333333 108.5866666666667V275.4133333333334L256 359.4666666666667z"/>
    <glyph glyph-name="arrow-right" unicode="" horiz-adv-x="512" d=" M85.3333333333333 213.3333333333334V170.6666666666667H341.3333333333333L224 53.3333333333334L254.2933333333333 23.04L423.2533333333334 192L254.2933333333333 360.9600000000001L224 330.6666666666667L341.3333333333333 213.3333333333334H85.3333333333333z"/>
    <glyph glyph-name="arrow-right-bold" unicode="" horiz-adv-x="512" d=" M85.3333333333333 234.6666666666667V149.3333333333334H277.3333333333333L202.6666666666667 74.6666666666667L254.2933333333333 23.04L423.2533333333334 192L254.2933333333333 360.9600000000001L202.6666666666667 309.3333333333334L277.3333333333333 234.6666666666667H85.3333333333333z"/>
    <glyph glyph-name="arrow-right-bold-circle" unicode="" horiz-adv-x="512" d=" M42.6666666666667 192C42.6666666666667 309.76 138.24 405.3333333333333 256 405.3333333333333S469.3333333333333 309.76 469.3333333333333 192S373.76 -21.3333333333333 256 -21.3333333333333S42.6666666666667 74.24 42.6666666666667 192M362.6666666666667 192L256 298.6666666666667V234.6666666666667H170.6666666666667V149.3333333333334H256V85.3333333333334L362.6666666666667 192z"/>
    <glyph glyph-name="arrow-right-bold-circle-outline" unicode="" horiz-adv-x="512" d=" M362.6666666666667 192L256 85.3333333333334V149.3333333333334H170.6666666666667V234.6666666666667H256V298.6666666666667L362.6666666666667 192M42.6666666666667 192C42.6666666666667 309.76 138.24 405.3333333333333 256 405.3333333333333S469.3333333333333 309.76 469.3333333333333 192S373.76 -21.3333333333333 256 -21.3333333333333S42.6666666666667 74.24 42.6666666666667 192M85.3333333333333 192C85.3333333333333 97.7066666666667 161.7066666666667 21.3333333333334 256 21.3333333333334S426.6666666666667 97.7066666666667 426.6666666666667 192S350.2933333333334 362.6666666666667 256 362.6666666666667S85.3333333333333 286.2933333333334 85.3333333333333 192z"/>
    <glyph glyph-name="arrow-right-bold-hexagon-outline" unicode="" horiz-adv-x="512" d=" M362.6666666666667 192L256 85.3333333333334V149.3333333333334H170.6666666666667V234.6666666666667H256V298.6666666666667L362.6666666666667 192M448 96C448 87.8933333333334 443.52 80.8533333333334 436.6933333333333 77.2266666666667L268.16 -17.4933333333333C264.7466666666666 -20.0533333333333 260.48 -21.3333333333333 256 -21.3333333333333C251.5199999999999 -21.3333333333333 247.2533333333333 -20.0533333333333 243.84 -17.4933333333333L75.3066666666666 77.2266666666667C68.48 80.8533333333334 63.9999999999999 87.8933333333334 63.9999999999999 96V288C63.9999999999999 296.1066666666667 68.4799999999999 303.1466666666667 75.3066666666666 306.7733333333333L243.84 401.4933333333334C247.2533333333333 404.0533333333334 251.5199999999999 405.3333333333334 256 405.3333333333334C260.48 405.3333333333334 264.7466666666666 404.0533333333334 268.16 401.4933333333334L436.6933333333333 306.7733333333333C443.52 303.1466666666667 448 296.1066666666667 448 288V96M256 359.4666666666667L106.6666666666667 275.4133333333334V108.5866666666667L256 24.5333333333333L405.3333333333333 108.5866666666667V275.4133333333334L256 359.4666666666667z"/>
    <glyph glyph-name="arrow-top-left" unicode="" horiz-adv-x="512" d=" M405.3333333333333 72.7466666666667L375.2533333333334 42.6666666666667L149.3333333333333 268.5866666666667V128H106.6666666666667V341.3333333333334H320V298.6666666666667H179.4133333333333L405.3333333333333 72.7466666666667z"/>
    <glyph glyph-name="arrow-top-right" unicode="" horiz-adv-x="512" d=" M106.6666666666667 72.7466666666667L332.5866666666667 298.6666666666667H192V341.3333333333334H405.3333333333333V128H362.6666666666667V268.5866666666667L136.7466666666667 42.6666666666667L106.6666666666667 72.7466666666667z"/>
    <glyph glyph-name="arrow-up" unicode="" horiz-adv-x="512" d=" M277.3333333333333 21.3333333333334H234.6666666666667V277.3333333333334L117.3333333333333 160L87.04 190.2933333333334L256 359.2533333333334L424.9600000000001 190.2933333333334L394.6666666666667 160L277.3333333333333 277.3333333333334V21.3333333333334z"/>
    <glyph glyph-name="arrow-up-bold" unicode="" horiz-adv-x="512" d=" M298.6666666666667 21.3333333333334H213.3333333333333V213.3333333333334L138.6666666666667 138.6666666666667L87.04 190.2933333333334L256 359.2533333333334L424.9600000000001 190.2933333333334L373.3333333333333 138.6666666666667L298.6666666666667 213.3333333333334V21.3333333333334z"/>
    <glyph glyph-name="arrow-up-bold-circle" unicode="" horiz-adv-x="512" d=" M256 -21.3333333333333C138.24 -21.3333333333333 42.6666666666667 74.24 42.6666666666667 192S138.24 405.3333333333333 256 405.3333333333333S469.3333333333333 309.76 469.3333333333333 192S373.76 -21.3333333333333 256 -21.3333333333333M256 298.6666666666667L149.3333333333333 192H213.3333333333333V106.6666666666667H298.6666666666667V192H362.6666666666667L256 298.6666666666667z"/>
    <glyph glyph-name="arrow-up-bold-circle-outline" unicode="" horiz-adv-x="512" d=" M256 298.6666666666667L362.6666666666667 192H298.6666666666667V106.6666666666667H213.3333333333333V192H149.3333333333333L256 298.6666666666667M256 -21.3333333333333C138.24 -21.3333333333333 42.6666666666667 74.24 42.6666666666667 192S138.24 405.3333333333333 256 405.3333333333333S469.3333333333333 309.76 469.3333333333333 192S373.76 -21.3333333333333 256 -21.3333333333333M256 21.3333333333334C350.2933333333334 21.3333333333334 426.6666666666667 97.7066666666667 426.6666666666667 192S350.2933333333334 362.6666666666667 256 362.6666666666667S85.3333333333333 286.2933333333334 85.3333333333333 192S161.7066666666667 21.3333333333334 256 21.3333333333334z"/>
    <glyph glyph-name="arrow-up-bold-hexagon-outline" unicode="" horiz-adv-x="512" d=" M256 298.6666666666667L362.6666666666667 192H298.6666666666667V106.6666666666667H213.3333333333333V192H149.3333333333333L256 298.6666666666667M448 96C448 87.8933333333334 443.52 80.8533333333334 436.6933333333333 77.2266666666667L268.16 -17.4933333333333C264.7466666666666 -20.0533333333333 260.48 -21.3333333333333 256 -21.3333333333333C251.5199999999999 -21.3333333333333 247.2533333333333 -20.0533333333333 243.84 -17.4933333333333L75.3066666666666 77.2266666666667C68.48 80.8533333333334 63.9999999999999 87.8933333333334 63.9999999999999 96V288C63.9999999999999 296.1066666666667 68.4799999999999 303.1466666666667 75.3066666666666 306.7733333333333L243.84 401.4933333333334C247.2533333333333 404.0533333333334 251.5199999999999 405.3333333333334 256 405.3333333333334C260.48 405.3333333333334 264.7466666666666 404.0533333333334 268.16 401.4933333333334L436.6933333333333 306.7733333333333C443.52 303.1466666666667 448 296.1066666666667 448 288V96M256 359.4666666666667L106.6666666666667 275.4133333333334V108.5866666666667L256 24.5333333333333L405.3333333333333 108.5866666666667V275.4133333333334L256 359.4666666666667z"/>
    <glyph glyph-name="assistant" unicode="" horiz-adv-x="512" d=" M405.3333333333333 405.3333333333333H106.6666666666667C83.2 405.3333333333333 64 386.1333333333334 64 362.6666666666667V64C64 40.5333333333333 83.2 21.3333333333334 106.6666666666667 21.3333333333334H192L256 -42.6666666666666L320 21.3333333333334H405.3333333333333C428.8 21.3333333333334 448 40.5333333333333 448 64V362.6666666666667C448 386.1333333333334 428.8 405.3333333333333 405.3333333333333 405.3333333333333M296.1066666666667 173.2266666666667L256 85.3333333333334L215.8933333333334 173.2266666666667L128 213.3333333333334L215.8933333333334 253.44L256 341.3333333333334L296.1066666666667 253.44L384 213.3333333333334"/>
    <glyph glyph-name="at" unicode="" horiz-adv-x="512" d=" M371.6266666666667 128C379.5200000000001 147.4133333333334 384 169.1733333333334 384 192C384 274.5600000000001 326.6133333333334 341.3333333333334 256 341.3333333333334S128 274.5600000000001 128 192S185.3866666666667 42.6666666666667 256 42.6666666666667C288.8533333333333 42.6666666666667 320 42.6666666666667 341.3333333333333 59.3066666666667V9.6000000000001C320 1e-13 287.1466666666667 1e-13 256 1e-13C161.7066666666667 1e-13 85.3333333333333 85.9733333333335 85.3333333333333 192.0000000000001S161.7066666666667 384.0000000000001 256 384.0000000000001S426.6666666666667 298.0266666666668 426.6666666666667 192.0000000000001C426.6666666666667 152.5333333333334 416 115.8400000000001 397.8666666666666 85.3333333333334H298.6666666666667V117.3333333333334C285.0133333333333 97.4933333333335 266.6666666666667 85.3333333333334 245.3333333333333 85.3333333333334C204.16 85.3333333333334 170.6666666666667 133.12 170.6666666666667 192S204.16 298.6666666666667 245.3333333333333 298.6666666666667C266.6666666666667 298.6666666666667 285.0133333333333 286.5066666666667 298.6666666666667 266.6666666666667V277.3333333333334H341.3333333333333V128H371.6266666666667M256 256C232.5333333333334 256 213.3333333333333 227.4133333333334 213.3333333333333 192S232.5333333333334 128 256 128S298.6666666666667 156.5866666666667 298.6666666666667 192S279.4666666666667 256 256 256z"/>
    <glyph glyph-name="attachment" unicode="" horiz-adv-x="512" d=" M160 64C95.1466666666667 64 42.6666666666667 116.48 42.6666666666667 181.3333333333334S95.1466666666667 298.6666666666667 160 298.6666666666667H384C431.1466666666667 298.6666666666667 469.3333333333333 260.48 469.3333333333333 213.3333333333334S431.1466666666667 128 384 128H202.6666666666667C173.2266666666666 128 149.3333333333333 151.8933333333333 149.3333333333333 181.3333333333334S173.2266666666666 234.6666666666667 202.6666666666667 234.6666666666667H362.6666666666667V202.6666666666667H202.6666666666667C190.9333333333333 202.6666666666667 181.3333333333333 193.0666666666667 181.3333333333333 181.3333333333334S190.9333333333333 160 202.6666666666667 160H384C413.44 160 437.3333333333333 183.8933333333334 437.3333333333333 213.3333333333334S413.44 266.6666666666667 384 266.6666666666667H160C112.8533333333333 266.6666666666667 74.6666666666667 228.48 74.6666666666667 181.3333333333334S112.8533333333333 96 160 96H362.6666666666667V64H160z"/>
    <glyph glyph-name="audiobook" unicode="" horiz-adv-x="512" d=" M384 -21.3333333333333H128C104.5333333333333 -21.3333333333333 85.3333333333333 -2.1333333333333 85.3333333333333 21.3333333333334V362.6666666666667C85.3333333333333 386.3466666666667 104.5333333333333 405.3333333333333 128 405.3333333333333H149.3333333333333V256L202.6666666666667 288L256 256V405.3333333333333H384C407.4666666666667 405.3333333333333 426.6666666666667 386.1333333333334 426.6666666666667 362.6666666666667V21.3333333333334C426.6666666666667 -2.1333333333333 407.4666666666667 -21.3333333333333 384 -21.3333333333333M277.3333333333333 128C253.8666666666667 128 234.6666666666667 108.8 234.6666666666667 85.3333333333334S253.8666666666667 42.6666666666667 277.3333333333333 42.6666666666667S320 61.8666666666667 320 85.3333333333334V192H384V234.6666666666667H298.6666666666667V122.24C292.48 125.8666666666667 285.0133333333333 128 277.3333333333333 128z"/>
    <glyph glyph-name="auto-fix" unicode="" horiz-adv-x="512" d=" M160 328.5333333333334L106.6666666666667 298.6666666666667L136.5333333333333 352L106.6666666666667 405.3333333333333L160 375.4666666666667L213.3333333333333 405.3333333333333L183.4666666666667 352L213.3333333333333 298.6666666666667L160 328.5333333333334M416 119.4666666666667L469.3333333333333 149.3333333333334L439.4666666666667 96L469.3333333333333 42.6666666666667L416 72.5333333333333L362.6666666666667 42.6666666666667L392.5333333333333 96L362.6666666666667 149.3333333333334L416 119.4666666666667M469.3333333333333 405.3333333333333L439.4666666666667 352L469.3333333333333 298.6666666666667L416 328.5333333333334L362.6666666666667 298.6666666666667L392.5333333333333 352L362.6666666666667 405.3333333333333L416 375.4666666666667L469.3333333333333 405.3333333333333M284.5866666666667 175.36L336.64 227.4133333333334L291.4133333333333 272.6400000000001L239.36 220.5866666666667L284.5866666666667 175.3600000000001M306.56 292.4800000000001L356.48 242.5600000000001C364.8 234.6666666666668 364.8 220.8000000000001 356.48 212.4800000000001L107.52 -36.48C99.2 -44.8 85.3333333333333 -44.8 77.44 -36.48L27.52 13.44C19.2 21.3333333333334 19.2 35.2 27.52 43.52L276.48 292.48C284.8 300.8 298.6666666666667 300.8 306.56 292.48z"/>
    <glyph glyph-name="auto-upload" unicode="" horiz-adv-x="512" d=" M114.1333333333333 178.1333333333333L138.6666666666667 256L163.2 178.1333333333333M117.3333333333333 298.6666666666667L49.0666666666667 106.6666666666667H89.6L104.5333333333333 149.3333333333334H172.8L187.7333333333333 106.6666666666667H228.2666666666667L160 298.6666666666667M234.6666666666667 21.3333333333334H469.3333333333333V64H234.6666666666667M298.6666666666667 106.6666666666667H405.3333333333333V213.3333333333334H469.3333333333333L352 330.6666666666667L234.6666666666667 213.3333333333334H298.6666666666667V106.6666666666667z"/>
    <glyph glyph-name="autorenew" unicode="" horiz-adv-x="512" d=" M256 320V256L341.3333333333333 341.3333333333334L256 426.6666666666667V362.6666666666667C161.7066666666667 362.6666666666667 85.3333333333333 286.2933333333334 85.3333333333333 192C85.3333333333333 158.5066666666667 95.1466666666667 127.36 111.7866666666667 101.1200000000001L142.9333333333333 132.2666666666667C133.3333333333333 149.9733333333334 128 170.6666666666667 128 192C128 262.6133333333334 185.3866666666667 320 256 320M400.2133333333333 282.88L369.0666666666667 251.7333333333334C378.4533333333334 233.8133333333334 384 213.3333333333334 384 192C384 121.3866666666667 326.6133333333334 64 256 64V128L170.6666666666667 42.6666666666667L256 -42.6666666666666V21.3333333333334C350.2933333333334 21.3333333333334 426.6666666666667 97.7066666666667 426.6666666666667 192C426.6666666666667 225.4933333333334 416.8533333333333 256.64 400.2133333333334 282.88z"/>
    <glyph glyph-name="av-timer" unicode="" horiz-adv-x="512" d=" M234.6666666666667 85.3333333333334C234.6666666666667 73.6 244.2666666666667 64 256 64S277.3333333333333 73.6 277.3333333333333 85.3333333333334S267.7333333333334 106.6666666666667 256 106.6666666666667S234.6666666666667 97.0666666666667 234.6666666666667 85.3333333333334M234.6666666666667 384V298.6666666666667H277.3333333333333V339.6266666666667C349.6533333333333 329.1733333333334 405.3333333333333 267.3066666666667 405.3333333333333 192C405.3333333333333 109.44 338.56 42.6666666666667 256 42.6666666666667S106.6666666666667 109.44 106.6666666666667 192C106.6666666666667 227.84 119.2533333333333 260.6933333333334 140.3733333333333 286.2933333333334L256 170.6666666666667L286.08 200.7466666666667L141.0133333333333 345.8133333333334V345.3866666666667C94.2933333333333 310.4 64 254.9333333333334 64 192C64 85.9733333333334 149.9733333333333 0 256 0S448 85.9733333333334 448 192S362.0266666666667 384 256 384M384 192C384 203.7333333333334 374.4 213.3333333333334 362.6666666666667 213.3333333333334S341.3333333333333 203.7333333333334 341.3333333333333 192S350.9333333333333 170.6666666666667 362.6666666666667 170.6666666666667S384 180.2666666666667 384 192M128 192C128 180.2666666666667 137.6 170.6666666666667 149.3333333333333 170.6666666666667S170.6666666666667 180.2666666666667 170.6666666666667 192S161.0666666666667 213.3333333333334 149.3333333333333 213.3333333333334S128 203.7333333333334 128 192z"/>
    <glyph glyph-name="baby" unicode="" horiz-adv-x="512" d=" M394.6666666666667 362.6666666666667C424.1066666666667 362.6666666666667 448 338.7733333333333 448 309.3333333333334S424.1066666666667 256 394.6666666666667 256S341.3333333333333 279.8933333333333 341.3333333333333 309.3333333333334S365.2266666666667 362.6666666666667 394.6666666666667 362.6666666666667M96 21.3333333333334C78.2933333333333 21.3333333333334 64 35.6266666666667 64 53.3333333333334S78.2933333333333 85.3333333333334 96 85.3333333333334H245.3333333333333C263.04 85.3333333333334 277.3333333333333 71.04 277.3333333333333 53.3333333333334S263.04 21.3333333333334 245.3333333333333 21.3333333333334H96M343.2533333333334 42.6666666666667L313.3866666666667 128H234.6666666666667L144 218.6666666666667S192 272 266.6666666666667 272C330.6666666666667 272 338.1333333333334 250.6666666666667 342.6133333333333 237.44L403.6266666666667 64C409.6 47.36 400.64 29.0133333333333 384 23.04C367.36 17.28 349.0133333333333 26.0266666666666 343.2533333333334 42.6666666666667z"/>
    <glyph glyph-name="backburger" unicode="" horiz-adv-x="512" d=" M106.6666666666667 170.6666666666667L192 85.3333333333334L162.1333333333333 55.04L25.1733333333333 192L162.1333333333333 328.9600000000001L192 298.6666666666667L106.6666666666667 213.3333333333334H448V170.6666666666667H106.6666666666667M448 320V277.3333333333334H234.6666666666667V320H448M448 106.6666666666667V64H234.6666666666667V106.6666666666667H448z"/>
    <glyph glyph-name="backspace" unicode="" horiz-adv-x="512" d=" M469.3333333333333 384H149.3333333333333C134.6133333333334 384 123.0933333333333 376.5333333333333 115.4133333333333 365.2266666666667L0 192L115.4133333333333 18.9866666666667C123.0933333333333 7.68 134.6133333333334 0 149.3333333333333 0H469.3333333333333C492.8 0 512 19.2 512 42.6666666666667V341.3333333333334C512 364.8 492.8 384 469.3333333333333 384M405.3333333333333 115.4133333333334L375.2533333333334 85.3333333333334L298.6666666666667 161.92L222.08 85.3333333333334L192 115.4133333333334L268.5866666666667 192L192 268.5866666666667L222.08 298.6666666666667L298.6666666666667 222.08L375.2533333333334 298.6666666666667L405.3333333333333 268.5866666666667L328.7466666666667 192"/>
    <glyph glyph-name="backup-restore" unicode="" horiz-adv-x="512" d=" M256 384C149.9733333333333 384 64 298.0266666666667 64 192H0L85.3333333333333 106.6666666666667L170.6666666666667 192H106.6666666666667C106.6666666666667 274.5600000000001 173.44 341.3333333333334 256 341.3333333333334S405.3333333333333 274.5600000000001 405.3333333333333 192S338.56 42.6666666666667 256 42.6666666666667C224 42.6666666666667 193.92 53.3333333333334 169.3866666666667 70.4L138.6666666666667 39.68C171.52 14.9333333333333 212.0533333333333 0 256 0C362.0266666666667 0 448 85.9733333333334 448 192S362.0266666666667 384 256 384M298.6666666666667 192C298.6666666666667 215.4666666666667 279.4666666666667 234.6666666666667 256 234.6666666666667S213.3333333333333 215.4666666666667 213.3333333333333 192S232.5333333333334 149.3333333333334 256 149.3333333333334S298.6666666666667 168.5333333333334 298.6666666666667 192z"/>
    <glyph glyph-name="bank" unicode="" horiz-adv-x="512" d=" M245.3333333333333 426.6666666666667L42.6666666666667 320V277.3333333333334H448V320M341.3333333333333 234.6666666666667V85.3333333333334H405.3333333333333V234.6666666666667M42.6666666666667 -21.3333333333333H448V42.6666666666667H42.6666666666667M213.3333333333333 234.6666666666667V85.3333333333334H277.3333333333333V234.6666666666667M85.3333333333333 234.6666666666667V85.3333333333334H149.3333333333333V234.6666666666667H85.3333333333333z"/>
    </font>
</defs>
</svg>
